<?xml version="1.0" standalone="no"?>
<!DOCTYPE svg PUBLIC "-//W3C//DTD SVG 1.1//EN" "http://www.w3.org/Graphics/SVG/1.1/DTD/svg11.dtd">
<svg xmlns="http://www.w3.org/2000/svg">
<metadata>Generated by Fontastic.me</metadata>
<defs>
<font id="untitled-font-1" horiz-adv-x="512">
<font-face font-family="untitled-font-1" units-per-em="512" ascent="480" descent="-32"/>
<missing-glyph horiz-adv-x="512" />

<glyph glyph-name="icone-10-especialidades" unicode="&#97;" d="M483 35l-454 0c-16 0-30 13-30 30l0 311c0 16 13 30 30 30l454 0c16 0 30-13 30-30l0-311c0-17-14-30-30-30z m-454 348c-4 0-7-3-7-7l0-311c0-4 3-7 7-7l454 0c4 0 7 3 7 7l0 311c0 4-3 7-7 7l-454 0z m345 11l-23 0 0 53c0 4-4 7-7 7l-176 0c-4 0-7-4-7-7l0-53-23 0 0 53c0 16 13 30 30 30l175 0c16 0 30-13 30-30l0-53 1 0z m-103-253l-30 0c-15 0-27 12-27 26l0 7-6 0c-16 0-27 13-27 27l0 29c0 16 12 27 27 27l6 0 0 7c0 16 13 27 27 27l30 0c15 0 26-12 26-27l0-7 7 0c16 0 27-12 27-27l0-29c0-7-3-14-8-19-5-5-12-8-19-8l-7 0 0-7c1-15-12-26-26-26z m-63 93c-3 0-4-1-4-3l0-30c0-2 1-4 4-4l30 0 0-29c0-3 1-4 3-4l30 0c2 0 4 1 4 4l0 30 30 0c1 0 2 0 3 1 0 1 1 2 1 3l0 29c0 3-1 4-4 4l-30 0 0 30c0 3-1 4-3 4l-30 0c-2 0-4-1-4-4l0-30-30 0 0-1z m-60-199l-103 0 0 371 103 0z m-80 23l57 0 0 325-57 0z m399-23l-103 0 0 371 103 0z m-80 23l57 0 0 325-57 0 0-325z"/>
<glyph glyph-name="icone-50-convenios" unicode="&#98;" d="M512 362c0 41-33 75-75 75l-362 0c-41 0-75-33-75-75l0-212c0-41 34-75 75-75l362 0c41 0 75 34 75 75z m-437 50l362 0c28 0 50-22 50-50l0-25-462 0 0 25c0 28 23 50 50 50z m362-312l-362 0c-27 0-49 22-49 50l0 162 461 0 0-162c0-28-22-50-50-50z m-189 125l176 0c7 0 13 5 13 12 0 7-6 13-13 13l-176 0c-7 0-13-6-13-13 0-7 6-12 13-12z m177-38l-177 0c-7 0-13-5-13-12 0-7 6-13 13-13l177 0c7 0 12 6 12 13 0 7-5 12-12 12z m-270 69l-31 0c-21 0-38-17-38-37l0-25c0-21 17-38 38-38l31 0c20 0 37 17 37 38l0 25c0 20-17 37-37 37z m12-62c0-7-5-13-12-13l-31 0c-7 0-13 6-13 13l0 25c0 6 6 12 13 12l31 0c7 0 12-5 12-12z"/>
<glyph glyph-name="icone-acupuntura" unicode="&#99;" d="M502 146c-9 0-18 0-27-1l0 56c15 4 27 19 27 36 0 20-16 36-37 36-20 0-36-16-36-36 0-17 12-31 27-36l0-155c0-6 4-10 9-10 6 0 10 4 10 10l0 81c9 0 18 1 27 1 5 0 9 3 9 9 0 5-4 9-9 9z m-55 91c0 10 8 18 18 18 10 0 19-8 19-18 0-10-9-18-19-18-10 0-18 8-18 18z m-19-96c-42-5-78-14-114-24-13-3-27-7-40-10l0 94c11 3 20 11 25 21 7-4 15-7 23-7 10 0 20 3 29 10l27 21c1 1 3 2 4 3l46 36c10 7 17 17 23 28l3 9c10 4 35 17 51 25 5 2 7 7 5 12-2 4-7 6-12 4-12-6-22-11-30-14l6 12c1 4 0 10-5 11-5 2-10 0-12-4l-23-47c-1-1-1-1-1-3l-16 15c-3 4-9 4-13 0-3-3-3-9 0-12l18-18c-2-2-3-3-5-3l-36-29c-8 18-24 30-43 30-6 0-9-4-9-10 0-5 3-9 9-9 13 0 24-10 27-23l-25-19c-11-9-27-8-37 1l-3 3c-4 5-5 8-8 16-1 8 1 17 8 23 0 0 0 0 0 1l71 82c7 8 11 19 11 30l0 5c0 5-4 9-10 9-5 0-9-3-9-9l0-5c0-6-2-12-6-18l-71-82c-7-7-11-15-13-24-2 1-4 1-8 1-9 0-17-3-24-9 0 0 0 0 0 1l-3 104 46 31 50-17c5-1 10 1 12 6 2 4-1 10-5 12l-49 15 0 30c0 6-3 9-9 9-5 0-9-3-9-9l0-32-46-31-32 16c-5 2-10 0-12-4-2-4 0-10 3-11l32-16 4-104 0-1c2-10-5-20-14-23-5-1-11 0-16 2-5 3-8 8-10 13l-1 6c1 0 1 1 1 3 0 6 4 9 9 9 6 0 9 4 9 9 0 6-3 10-9 10-5 0-10-2-13-4l-13 95 0 1c-3 9 0 19 7 26l59 62c12 13 29 20 46 20l223-37c5-1 10 3 10 8 1 4-3 10-7 10l-224 36c-1 0-1 0-2 0-23 0-44-9-59-25l-59-62c-11-11-15-28-11-43l16-129 0-1c3-9 9-19 19-24 6-3 12-5 19-5 5 0 8 1 12 2 5 2 10 5 14 8 2-14 12-25 26-29l0-155c0-6 4-10 9-10 6 0 9 4 9 10l0 42c16 4 30 8 45 11 35 9 71 18 111 24 5 1 8 5 8 10 0 5-4 8-9 8z m-181 96c0 10 8 18 18 18 5 0 8-2 11-4 2-4 4-10 7-13 0-10-8-18-18-18-10-1-18 7-18 17z m-20-140c-21-3-42-5-62-5l0 56c16 3 27 18 27 35 0 20-16 37-36 37-20 0-37-17-37-37 0-17 12-31 28-35l0-139c0-5 3-9 9-9 5 0 9 3 9 9l0 64c22 0 43 2 66 6 4 1 8 6 7 10-1 6-6 8-11 8z m-89 85c0 10 8 18 18 18 10 0 18-8 18-18 0-10-8-18-18-18-10 0-18 8-18 18z m-18-90c-10 1-19 2-28 3l0 125c16 3 27 18 27 35 0 20-16 37-36 37-20 0-37-17-37-37 0-17 12-31 28-35l0-193c0-5 3-9 9-9 6 0 9 4 9 9l0 49c8-1 17-1 26-2 0 0 0 0 1 0 5 0 10 3 10 8-1 5-4 10-9 10z m-55 163c0 10 8 18 18 18 10 0 18-8 18-18 0-10-8-18-18-18-10 0-18 8-18 18z m-9-164c-1-5-5-7-10-7 0 0 0 0-1 0l-37 7c-4 1-8 5-7 11 1 5 5 8 11 7l36-7c5-1 9-5 8-11z"/>
<glyph glyph-name="icone-alivio-dores-musculares" unicode="&#100;" d="M465 100c-3 17-18 31-35 33l-94 10c-6 0-11 6-11 13l0 47c21 19 37 45 45 71 4 1 8 2 12 4 8 4 18 12 22 30 8 30 3 51-15 58-5 2-10 3-15 3-7 63-57 112-118 112-61 0-111-49-118-112-5 0-10-1-15-3-18-7-23-28-15-58 4-18 14-26 22-30 4-2 8-3 12-4 8-26 24-52 45-71l0-47c0-7-5-13-11-14l-94-9c-17-2-32-16-35-33l-10-60c-1-5 2-9 7-9 0 0 0 0 1 0 4 0 7 2 8 6l10 60c2 11 10 19 21 20l3 0-13-23c-3-4-1-8 2-11 2 0 3-1 4-1 3 0 6 2 7 4l19 33 12 1-16-26c-2-4 0-9 3-11 2-1 3-1 4-1 3 0 6 1 7 4l21 36 12 2-18-30c-2-4 0-9 3-11 2-1 3-1 4-1 3 0 6 1 7 4l23 40 9 1c15 1 26 14 26 29l0 36c16-10 34-16 53-16 19 0 37 6 53 16l0-36c0-15 11-28 26-29l14-2-18-31c-2-3-1-8 3-10 1-1 2-1 4-1 2 0 5 1 7 4l21 37 10-1-16-29c-2-4-1-9 3-11 1-1 2-1 4-1 2 0 5 2 7 4l19 35 11-1-15-26c-3-4-1-9 3-11 1-1 2-1 4-1 2 0 5 1 6 4l19 32 7-1c11-1 19-9 21-20l10-60c1-4 4-6 8-6 1 0 1 0 1 0 5 0 8 5 7 9z m-91 235c0 6 1 12 1 18 0 0 0 0 1 0 2 0 4 0 6-1 14-6 10-30 7-40-2-10-7-16-14-20-1 0-1 0-1 0 0 6 1 12 1 18 0 5 0 10-1 15-1 3-1 7 0 10z m-236-43c0 0 0 0-1 0-7 4-12 10-14 20-3 10-7 34 7 40 2 1 4 1 6 1 1 0 1 0 1 0 0-6 1-12 1-18 1-3 1-7 0-11 0-5-1-10-1-15 0-5 1-11 1-17z m118-100c-57 0-103 64-103 117 0 5 0 9 1 13 1 5 1 10 0 15-1 6-1 11-1 17 0 61 46 111 103 111 57 0 103-50 103-111 0-6 0-11-1-17-1-5-1-10 0-15 1-4 1-8 1-13 0-53-46-117-103-117z m152 43l22 2 5 27c1 5 5 7 9 7 5-1 8-5 7-10l-6-32c0-4-3-6-7-7l-22-2-5-29c-1-4-4-6-8-6 0 0-1 0-1 0-4 0-7 5-7 9l6 34c1 4 4 6 7 7z m101-60l-28-19c-3-2-6-2-9 0l-18 14-23-17c-2-1-3-1-5-1-2 0-5 1-6 3-3 4-2 9 2 11l28 20c3 2 7 2 9 0l18-14 22 16c4 2 9 1 11-2 3-4 2-9-1-11z m-448 86c-1 5 2 9 7 10 4 0 8-2 9-7l5-27 22-2c3-1 6-3 7-7l6-34c0-4-3-9-7-9 0 0-1 0-1 0-4 0-7 2-8 6l-5 29-22 2c-4 1-6 3-7 7z m-21-105c-3-2-7-2-9 0l-28 19c-3 2-4 7-2 11 3 3 8 4 12 2l22-16 18 14c2 2 6 2 9 0l28-20c4-2 5-7 2-11-1-2-4-3-6-3-2 0-4 0-5 1l-23 17z"/>
<glyph glyph-name="icone-aspas-depoimentos" unicode="&#101;" d="M405 302c-1 11 0 42 29 84 2 3 2 7-1 10-12 12-19 19-24 25-7 6-10 10-15 14-3 2-7 2-10 0-51-44-107-135-99-247 5-65 53-113 114-113 62 0 113 51 113 114 0 60-47 110-107 113z m-7-211c-52 0-93 42-97 98-9 126 65 207 88 229 2-2 5-5 8-9 5-4 11-10 20-20-35-54-29-93-26-98 2-3 5-5 8-5 53 0 97-43 97-97 0-54-44-98-98-98z m-277 211c-1 11 0 42 29 84 2 3 1 7-1 10-12 12-19 19-25 24-6 7-9 11-14 15-3 2-8 2-11 0-50-44-106-135-98-247 4-65 52-113 113-113 63 0 114 51 114 114 0 60-47 110-107 113z m-7-211c-52 0-93 42-97 98-9 126 65 207 88 229 2-2 4-5 8-9 5-4 11-10 20-20-35-54-29-93-26-98 1-3 4-5 7-5 54 0 98-43 98-97 0-54-44-98-98-98z"/>
<glyph glyph-name="icone-eletroacupuntura" unicode="&#102;" d="M312 456c0 31-25 56-56 56-31 0-56-25-56-56 0-10 4-19 10-27 3-5 6-11 6-17 0-6-3-12-6-17-6-8-10-17-10-27 0-28 20-52 48-56l0-304c0-5 4-8 8-8 4 0 8 3 8 8l0 304c28 4 48 28 48 56 0 10-4 19-10 27-3 5-6 11-6 17 0 6 3 12 6 17 6 8 10 17 10 27z m-23-18c-6-8-9-17-9-26 0-9 4-18 9-26 4-5 7-11 7-18 0-22-18-40-40-40-22 0-40 18-40 40 0 7 3 13 7 18 6 8 9 17 9 26 0 9-4 18-9 26-4 5-7 11-7 18 0 22 18 40 40 40 22 0 40-18 40-40 0-7-3-13-7-18z m-33-18c-4 0-8-4-8-8 0-12-4-24-12-34-1-3-3-5-4-8-1-4 2-9 6-10 1 0 1 0 2 0 4 0 7 2 8 5 0 2 1 3 2 4 9 13 14 28 14 43 0 4-4 8-8 8z m184-8c0 6 3 12 6 17 6 8 10 17 10 27 0 31-25 56-56 56-31 0-56-25-56-56 0-10 4-19 10-27 3-5 6-11 6-17 0-6-3-12-6-17-6-8-10-17-10-27 0-28 20-51 48-55l0-225c0-5 4-8 8-8 4 0 8 4 8 8l0 225c28 4 48 27 48 55 0 10-4 19-10 27-3 5-6 11-6 17z m-40-84c-22 0-40 18-40 40 0 7 3 13 7 18 6 8 9 17 9 26 0 9-4 18-9 26-4 5-7 11-7 18 0 22 18 40 40 40 22 0 40-18 40-40 0-7-3-13-7-18-6-8-9-17-9-26 0-9 4-18 9-26 4-5 7-11 7-18 0-22-18-40-40-40z m15 60c-2 4-7 5-11 3-4-2-5-7-3-11 0 0 5-10 7-13-1-4-4-7-8-7-5 0-8-4-8-8 0-4 4-8 8-8 13 0 24 11 24 24 0 1 0 2-1 3-2 5-5 11-8 17z m-35 58l7 5-2-2z m12 11c1 4 4 7 8 7 4 0 8 4 8 8 0 4-4 8-8 8-13 0-24-11-24-24 0-1 0-2 0-3 1-2 3-5 4-7l5 3 9 6c-1 1-1 2-2 2z m-224-1c0 31-25 56-56 56-31 0-56-25-56-56 0-10 4-19 10-27 3-5 6-11 6-17 0-6-3-12-6-17-6-8-10-17-10-27 0-28 20-52 48-56l0-224c0-5 4-8 8-8 4 0 8 3 8 8l0 225c28 4 48 27 48 55 0 10-4 19-10 27-3 5-6 11-6 17 0 6 3 12 6 17 6 8 10 17 10 27z m-23-18c-6-8-9-17-9-26 0-9 4-18 9-26 4-5 7-11 7-18 0-22-18-40-40-40-22 0-40 18-40 40 0 7 3 13 7 18 6 8 9 17 9 26 0 9-4 18-9 26-4 5-7 11-7 18 0 22 18 40 40 40 22 0 40-18 40-40 0-7-3-13-7-18z m-33 42c-4 0-8-4-8-8 0-4 4-8 8-8 4 0 8-4 8-8 0-4 4-8 8-8 4 0 8 4 8 8 0 13-11 24-24 24z m-32-400c4 0 8 4 8 8 0 4-4 8-8 8l-16 0c-5 0-8-4-8-8 0-5 4-8 8-8z m2-10l-16-16c-3-3-3-9 0-12 3-3 8-3 11 0 1 0 1 0 1 0l16 16c3 3 3 8-1 12-3 3-8 3-11 0z m30-6c-4 0-8-4-8-8l0-16c0-4 4-8 8-8 4 0 8 4 8 8l0 16c0 4-4 8-8 8z m288 0c-4 0-8-4-8-8l0-16c0-4 4-8 8-8 4 0 8 4 8 8l0 16c0 4-4 8-8 8z m30 6c-3 3-9 3-12-1-3-3-3-8 0-11l16-16c3-3 9-3 12 1 3 3 3 8 0 11z m18 26l-16 0c-5 0-8-4-8-8 0-4 4-8 8-8l16 0c4 0 8 4 8 8 0 4-4 8-8 8z m-334 262c-3-4-3-9 0-12 3-3 8-3 12 0 3 3 3 8 0 12-4 3-8 3-12 0z m126 98c2 0 4 1 6 2 1 2 2 4 2 6 0 2-1 4-2 6-4 3-9 3-12 0-1-2-2-4-2-6 0-4 4-8 8-8 0 0 0 0 0 0z"/>
<glyph glyph-name="icone-email" unicode="&#103;" d="M499 319l0-283c0-20-17-36-36-36l-414 0c-20 0-36 17-36 36l0 283c0 4 1 6 4 8l80 67 0 76c0 6 6 11 11 11l95 0 25 20c16 15 39 15 56 0l26-20 93 0c7 0 11-5 11-11l0-76 81-67c3-1 4-5 4-8z m-457 0l56-45 0 91z m195 161l38 0-4 5c-9 8-20 8-29 0z m177-115l0-91 56 45z m-379-69l0-260c0-7 7-14 14-14l414 0c7 0 14 7 14 14l0 260-193-153c-17-15-40-15-56 0z m84-39l122-98c10-7 21-7 30 0l121 98 0 201-273 0z m50 138c-6 0-11 4-11 11 0 5 5 11 11 11l174 0c7 0 11-6 11-11 0-7-4-11-11-11z m0-59c-6 0-11 5-11 11 0 6 5 11 11 11l174 0c7 0 11-5 11-11 0-6-4-11-11-11z m0-58c-6 0-11 4-11 11 0 5 5 11 11 11l101 0c5 0 11-6 11-11 0-7-6-11-11-11z"/>
<glyph glyph-name="icone-endereco" unicode="&#104;" d="M342 174c54 85 47 74 49 77 20 28 30 61 30 95 0 91-74 166-165 166-91 0-165-75-165-166 0-34 11-68 31-96l49-76c-52-8-140-32-140-84 0-19 12-46 72-67 41-15 95-23 153-23 108 0 225 30 225 90 0 52-88 76-139 84z m-195 92c0 0 0 1 0 1-17 23-26 51-26 79 0 75 60 136 135 136 74 0 135-61 135-136 0-28-8-55-25-78-1-2 7 10-110-173z m109-236c-118 0-195 35-195 60 0 17 40 45 127 56l55-87c3-4 8-7 13-7 5 0 10 3 13 7l55 87c87-11 127-39 127-56 0-25-76-60-195-60z m0 391c-41 0-75-34-75-75 0-41 34-75 75-75 41 0 75 34 75 75 0 41-34 75-75 75z m0-120c-25 0-45 20-45 45 0 25 20 45 45 45 25 0 45-20 45-45 0-25-20-45-45-45z"/>
<glyph glyph-name="icone-facebok" unicode="&#105;" d="M293 512c30 0 61 0 92 0 8-4 14-11 17-20 0-27 0-55 0-82-1 0-1-1-1-1-5-14-13-20-27-20-12 0-25 0-37 0-4 0-9 0-13-1-7-1-8-2-8-9-1-11-1-22-1-33 0-2 0-4 0-7 3 0 5 0 6 0 17 0 33 0 50 0 18 0 28-10 28-28 0-24 0-49 0-73 0-18-11-28-28-28-17 0-33 0-50 0-2 0-4 0-6 0 0-3 0-5 0-7 0-58 0-116 0-174 0-3 0-7-1-11-2-10-10-15-19-18-31 0-61 0-91 0-2 1-4 1-6 2-11 5-15 14-15 26 0 58 0 117 0 175 0 2 0 4 0 6-1 1-1 1-1 1-15 0-29 0-44 0-17 0-27 10-27 27-1 25-1 50 0 75 0 17 10 27 27 27 13 0 26 0 40 0 1 0 3 0 5 0 0 3 0 5 0 7 1 18 0 36 2 54 6 52 33 89 85 106 7 3 15 4 23 6z m75-203c-2 0-4 0-5 0-20 0-40 0-59 0-11 0-19 6-19 16 0 19 0 38 1 57 2 21 13 33 34 36 15 2 30 1 45 1 2 0 4 0 6 0 0 22 0 42 0 63 0 0-1 1-1 1-22 0-43 0-64-1-23-1-43-7-60-22-22-19-31-44-32-72-1-19-1-39-1-59 0-13-6-20-19-20-16 0-32 0-48 0-2 0-3 0-5 0 0-23 0-46 0-69 2 0 4 0 5 0 17 0 34 0 50 0 10 0 16-6 17-15 0-2 0-4 0-7 0-60 0-121 0-181 0-2 0-4 0-7 24 0 48 0 72 0 0 3 0 5 0 7 0 61 0 122 0 184 0 13 6 19 20 19 19 0 39 0 58 0 2 0 4 0 5 0 0 23 0 46 0 69z"/>
<glyph glyph-name="icone-fisioterapia" unicode="&#106;" d="M504 16l-496 0c-5 0-8-4-8-8 0-4 4-8 8-8l496 0c4 0 8 4 8 8 0 4-4 8-8 8z m-496 64l132 0c2 0 5 1 6 3l48 60c3 3 2 8-1 11-4 3-9 2-11-1l-10-12c1 24 21 43 47 43l45 0c4 0 8 4 8 8 0 4-4 8-8 8l-45 0c-20 0-39-9-51-25-13 38-54 58-91 45-38-12-58-53-45-91 4-13 12-24 23-33l-47 0c-5 0-8-4-8-8 0-4 4-8 8-8z m36 72c0 31 25 56 56 56 31 0 56-25 56-56 0-31-25-56-56-56-31 0-56 25-56 56z m460-56l-52 0 0 88 52 0c5 0 8 4 8 8 0 4-4 8-8 8l-80 0c-4 0-8-4-8-8 0-5 4-8 8-8l12 0 0-88-204 0 22 27c3 3 2 8-1 11-3 3-8 3-11-1l-70-85-164 0c-5 0-8-4-8-8 0-4 4-8 8-8l168 0c2 0 5 1 6 3l37 45 285 0c4 0 8 4 8 8 0 4-4 8-8 8z m-228 120c4 0 8 4 8 8 0 65 33 104 88 104 58 0 92-39 92-104 0-4 4-8 8-8 4 0 8 4 8 8 0 35-10 64-27 85 12 10 16 27 10 42-4 13-19 36-23 43l0 82c-1 20-17 35-36 36l-60 0c-19-1-35-16-36-36l0-84c1-21 11-41 29-53-43-14-69-55-69-115 0-4 4-8 8-8z m166 104c-10 9-21 15-33 19 12 7 22 18 27 32 5-8 9-17 13-25 3-9 0-19-7-26z m-18 82c-25 5-33 10-52 26l52 0z m-100 74c1 11 9 19 20 20l60 0c11-1 19-9 20-20l0-32-100 0z m0-84l0 36 23 0c29-26 41-35 76-43-3-22-26-41-51-41-23 0-48 20-48 48z m39-174l32 66c2 4 0 9-4 11-4 2-8 0-10-4l-31-64-67-45c-4-2-5-7-2-11 1-2 4-4 7-4 1 0 3 1 4 2l69 46c1 1 2 2 2 3z m-39-82c1 0 3 0 4 1l67 49c1 0 2 1 2 2l34 56c2 4 0 9-4 11-4 1-8 0-10-3l-33-54-65-48c-4-2-4-7-2-11 1-2 4-3 7-3z"/>
<glyph glyph-name="icone-fisioterapia-cardiorrespiratoria" unicode="&#107;" d="M469 132l0 30c0 47-38 85-85 85l-2 0c12 16 19 34 19 54l0 117c0 44-33 81-77 85l0 0c0 5-4 9-8 9l-34 0c-10 0-20-4-26-12-7 8-16 12-26 12l-34 0c-4 0-8-4-8-9l0 0c-44-4-77-41-77-85l0-117c0-20 6-38 19-54l-28 0c-56 0-102-45-102-102l0-43c0-56 46-102 102-102l77 0c57 0 103 46 103 102l0 81 23 13 79 0c19 0 34-15 34-34l0-30c-35-15-52-54-37-89 14-35 53-52 88-38 35 14 52 54 38 89-7 17-21 31-38 38z m-34 22l17 0 0-53c-5 2-11 2-17 0z m9-69c9 0 17-7 17-17 0-9-8-17-17-17-10 0-17 8-17 17 0 10 7 17 17 17z m-60 333l0-51-17 0 0 51c0 25-18 46-43 51l0 17c34-4 60-33 60-68z m-222 0c0 16 11 29 26 33 0-4 4-7 8-7l34 0c10 0 20 4 26 11 6-7 16-11 26-11l34 0c4 0 8 3 8 7 15-4 26-17 26-33l0-108c0-19-11-37-28-46l-66-33-66 33c-17 9-28 27-28 46z m120 77l25 0 0-34-25 0c-10 0-17 7-17 17 0 9 7 17 17 17z m-52 0c10 0 17-8 17-17 0-9-7-17-17-17l-25 0 0 34z m-102-77c0 35 26 64 60 68l0-17c-25-5-43-26-43-51l0-51-17 0z m141-223c-3-1-4-4-4-7l0-86c-1-47-39-85-86-85l-77 0c-47 0-85 38-85 85l0 43c0 47 38 85 85 85l46 0c2-1 4-2 6-4l23-13-66 0c-42 0-77-34-77-76l0-26c0-42 34-77 77-77l60 0c42 0 76 35 76 77l0 77c0 3-1 6-4 7l-81 46c-21 12-34 35-34 60l0 49 17 0 0-40c0-26 15-50 38-61l69-35c3-1 5-1 8 0l69 35c23 11 38 35 38 61l0 40 17 0 0-49c0-25-13-48-34-60z m-62 1l23-13 0-72c0-33-26-60-59-60l-60 0c-33 0-60 27-60 60l0 26c0 33 27 59 60 59z m177 17l-49 0 23 13c2 2 4 3 6 4l20 0c34 0 63-25 68-59l-17 0c-5 24-26 42-51 42z m60-196c-29 0-51 23-51 51 0 19 9 35 25 45l0-22c-12-14-11-36 3-48 14-13 36-12 48 3 12 13 12 32 0 45l0 22c25-15 33-46 19-70-9-16-26-26-44-26z"/>
<glyph glyph-name="icone-fisioterapia-certo" unicode="&#108;" d="M356 182c19 0 37 0 55 0 18 0 36 0 53 0 2 0 5 1 7 2 11 8 23 7 35 6 4 0 6-4 6-8 0-30 1-60 0-90 0-6-3-9-9-9-13 0-26 0-40 0 0-2 0-4 0-6 0-22 0-44 0-66 0-8-3-10-11-10-7 0-13 0-20 0-7 0-10 2-10 9-3 24-5 47-8 71 0 0 0 1 0 2-11 0-22 0-34 0 0-9 0-18 1-27 0-1 1-2 2-3 11-10 15-23 14-37-1-4-3-7-8-7-1 0-2 0-4 0-47 0-94 0-141 0-10 0-12 2-12 12 0 13 4 24 14 32 1 1 2 2 2 3 0 9 0 18 0 27-50 0-99 0-149 0-1-11-2-22-4-33-1-14-2-28-4-41 0-6-3-8-9-8-7-1-14-1-21 0-8 0-11 2-11 10 0 22 0 44 0 66 0 2 0 3 0 6-2 0-3 0-5 0-11 0-23 0-34 0-8 0-11 3-11 10 0 10 0 20 0 30 0 7 3 9 10 9 4 0 7 0 9 0-3 9-8 17-9 26-6 28 16 55 45 57 7 0 15 0 23 0 17-2 30-10 39-24 1-2 2-3 3-5 1 2 2 3 2 4 10 16 24 25 43 25 27 0 55 0 83 0 0 8 0 16 0 25-5 0-10 0-15 0-16 0-26 10-26 26 0 14-1 27 0 41 0 24 11 42 32 54 13 8 26 15 39 22 0 1 0 1 0 2-16 13-23 30-22 50 1 15 0 29 0 44 0 19 14 33 34 33 13 0 27 0 40 0 11 0 18-5 23-14 1-2 3-4 5-5 8-4 13-10 14-19 0-17 0-34-1-52-1-14-8-27-19-36-1-1-2-1-3-2 13-7 25-14 37-21 24-13 36-33 36-60 0-3 0-7 0-12 9 9 20 6 31 7 7 0 10-3 10-10 0-21 0-42 0-63 0-7-3-10-10-10-13 0-25 0-37 0-3 0-5-1-6-3-4-9-12-13-21-13-11-1-21 0-28 9-2 2-3 5-5 8 0-12 0-23 0-34z m8 99c0 14 0 27 0 41 6 0 11 0 16 0 0-14 0-27 0-41 9 0 17 0 25 0 0 9 0 17 0 25 0 18-8 32-24 41-11 6-22 12-33 18-1 1-2 1-3 2-7-13-17-20-31-20-14 0-24 8-31 20-13-8-27-15-40-22-10-7-18-17-19-30-1-17-1-34-1-52 0-4 4-7 10-7 7 0 14 0 22 0 6 0 12 0 17 0 0 9 0 16 0 25-10 0-21 0-32 0 0 6 0 11 0 17 3 0 5 0 8 0 0 8 0 16 0 24 6 0 11 0 17 0 0-8 0-16 0-25 9 0 18 0 27 0 11 0 20-4 26-13 1-2 3-3 4-3 14 0 27 0 42 0z m99-116c-3 0-5 0-7 0-36 0-71 0-106 0-8 0-11 3-11 11 0 15 0 30 0 45 0 8 3 11 10 10 5 0 9 1 11 6 3 5 8 9 14 10 5 1 9 1 14 1 10 0 18-5 23-14 0-1 1-2 2-3 0 12 0 22 0 33-1 0-1 0-1 0-29 0-58 0-87 0-1 0-3-2-3-3-3-7-7-13-13-17-3-1-3-3-3-6 0-20 0-40 0-60 0-1 0-3 0-4 12 0 24 0 33-9 9-9 10-20 6-32 39 0 79 0 118 0 0 11 0 21 0 32z m-166-8c-44 0-88 0-131 0 0 6 0 11 0 17 41 0 82 0 123 0 0 8 0 16 0 24-42 0-84 1-125 0-13 0-23-7-29-19-10-21 6-46 30-46 43-1 87-1 130 0 1 0 2 0 2 0 0 8 0 16 0 24z m-280-41c0-6 0-11 0-16 160 0 319 0 479 0 0 5 0 11 0 16-160 0-319 0-479 0z m312 331c-16-15-35-19-56-17-1-23 19-42 42-42 23 1 42 21 40 42-11 3-19 8-26 17z m26 0c0 3 0 4 0 5 0 6 1 12 0 18 0 6-2 8-7 9-6 0-8 3-9 8-1 6-4 8-9 8-14 1-28 1-41 0-8 0-15-5-16-13 0-12 0-24 0-36 20-2 37 3 49 19 3 3 5 6 10 6 4-1 6-4 7-8 3-7 8-13 16-16z m-314-253c-2-2-3-2-4-3-16-13-16-38 0-51 12-9 41-11 55-2-3 2-5 3-7 5-8 12-19 17-33 14-8-1-11 3-11 11 0 8 0 16 0 26z m62-45c7 12 6 25-2 36-9 12-27 17-43 13 0-8 0-16 0-24 4 0 8-1 12 0 5 0 10-2 14-6 6-7 12-13 19-19z m162-66c0-9 0-17 0-24 14 0 27 0 40 0 0 8 0 16 0 24-13 0-26 0-40 0z m98 0c-13 0-27 0-40 0 0-9 0-17 0-24 13 0 27 0 40 0 0 8 0 15 0 24z m-57-41c-14 0-27 0-40 0-11 0-16-5-18-16 20 0 39 0 58 0 0 5 0 10 0 16z m17-16c19 0 38 0 57 0-2 7-4 15-12 15-15 2-30 1-45 1 0-6 0-11 0-16z m-248-9c2 22 5 44 7 66-6 0-11 0-15 0 0-22 0-44 0-66 2 0 5 0 8 0z m356 66c2-22 4-44 6-66 3 0 6 0 9 0 0 22 0 44 0 66-5 0-10 0-15 0z m15 198c-2 0-3 0-5 0-9 0-11-3-11-11 0-8 0-15 0-23 0-5 0-10 0-15 6 0 11 0 16 0 0 16 0 32 0 49z m50-148c0 14 0 27 0 41-5-1-10-1-14-3-1 0-2-2-2-3-1-12-1-24-1-35 6 0 11 0 17 0z m-231 107c0-9 0-17 0-25 8 0 16 0 24 0 0 9 0 17 0 25-8 0-16 0-24 0z m119-25c2 0 3 0 5 0 5 0 8 4 8 8 0 5-3 8-8 8-3 1-7 1-10 0-4-1-7-3-7-8 0-4 3-7 7-8 2 0 3 0 5 0z m-94 66c0-8 0-16 0-25 9 0 15 4 16 12 0 7-6 14-16 13z m24-148c7-1 12 0 15 6 3 4 2 9-1 13-3 5-8 6-14 5 0-8 0-16 0-24z m15 240c-10 0-20 0-30 0 4-6 9-10 15-9 7 0 12 3 15 9z m-209-228c-3-4-5-8-8-12 6 0 10 0 16 0-3 4-6 8-8 12z"/>
<glyph glyph-name="icone-fisioterapia-desportiva" unicode="&#109;" d="M437 437c-48 49-113 75-181 75-68 0-133-26-181-75-49-48-75-113-75-181 0-68 26-133 75-181 48-49 113-75 181-75 68 0 133 26 181 75 49 48 75 113 75 181 0 68-27 133-75 181z m-58-164c3 49 20 96 48 135 1 2 3 3 3 4 37-40 58-93 61-147l-112 0c0 3 0 6 0 8z m32 149c-6-9-12-18-17-28-20-36-32-77-35-119 0-3-1-6-1-8l-92 0 0 224c56-3 109-25 150-62-2-2-3-5-5-7z m-165 69l0-225-92 0c0 3 0 6-1 9-4 53-22 104-53 147-1 3-2 5-4 8 41 36 94 59 150 61z m-164-78c0-2 2-3 3-4 29-40 45-87 48-136 0-3 0-5 0-7l-112 0c2 55 24 107 61 147z m51-167c0-3 0-5 0-8-3-48-20-96-48-136-1-2-3-3-3-4-37 40-58 93-61 148z m-32-155c30 44 48 94 52 147 0 3 1 6 1 8l92 0 0-224c-56 3-109 24-150 62 2 1 4 4 5 7z m165-70l0 225 92 0c0-3 0-6 1-8 4-56 24-110 57-155-41-37-94-60-150-62z m164 78c0 2-2 3-3 4-29 40-45 87-48 135 0 3 0 5 0 8l112 0c-2-55-24-107-61-147z"/>
<glyph glyph-name="icone-fisioterapia-domiciliar" unicode="&#110;" d="M203 25l-130 0c-5 0-8 4-8 8l0 247c0 3 1 5 3 6l181 137c3 2 7 2 9 0l181-137c2-1 3-4 3-6l0-247c0-4-4-8-8-8l-130 0c-5 0-9 3-9 8l0 151-84 0 0-151c0-5-4-8-8-8z m108 15l116 0 0 236-173 132-174-132 0-235 116 0 0 151c0 4 4 7 8 7l99 0c4 0 8-3 8-7z m-299 246c-8-6-17 6-9 12l246 187c3 2 7 2 9 0l116-88 0 33c0 5 4 8 8 8l54 0c4 0 7-3 7-8l0-86 66-49c8-6-1-18-9-13-82 63-164 125-246 188z m378 99l38-29 0 67-38 0z"/>
<glyph glyph-name="icone-fisioterapia-geriatrica" unicode="&#111;" d="M459 312c-4 0-8-4-8-8l0-288-40 0 0 183c0 4-3 8-7 8-5 0-8-4-8-8l0-183-40 0 0 288c0 4-4 8-8 8-5 0-8-4-8-8l0-296c0-5 3-8 8-8l112 0c4 0 7 4 7 8l0 296c0 4-3 8-8 8z m9 97c17 36 2 79-34 96-36 17-79 2-96-34-9-20-9-42 0-62-25-8-43-32-43-58l0-100c0-4 4-8 8-8 5 0 8 4 8 8l0 100c0 21 15 39 36 44 24-31 69-37 100-12 5 4 9 7 12 12 21-4 36-23 36-44l0-144c0-4 4-8 8-8 5 0 8 4 8 8l0 144c0 27-17 50-43 58z m-65-25c-31 0-56 25-56 55 0 31 25 56 56 56 31 0 56-25 56-56 0-30-25-55-56-55z m-125-146c-19 0-34-15-34-34 0-5 3-8 8-8 4 0 8 3 8 8 0 10 8 18 18 18 9 0 17-8 17-18l0-196c0-5 4-8 8-8 5 0 8 4 8 8l0 196c1 19-15 34-33 34z m-114 155c4 7 5 16 5 24 0 21-9 40-26 53 0 0 0 1 0 1 0 22-18 40-40 40-22 0-40-18-40-40 0 0 0-1 0-1-24-18-32-50-21-78-20-8-34-31-34-56l-8-144c0-4 3-8 8-8l0 0c4 0 8 3 8 7l8 144 0 0c0 20 11 38 27 43 21-29 62-35 91-14 6 4 10 9 14 14 16-5 28-23 28-43l0 0 8-144c0-4 4-7 8-7l0 0c5 0 8 4 8 8l-8 144c0 25-15 48-36 57z m-13 39c-13-1-39 9-55 18-3 2-6 2-8 0-9-5-19-8-29-9 13 24 44 33 68 20 11-6 20-16 24-29z m-48 63c10 0 20-6 23-16-15 6-31 6-45 0 3 10 12 16 22 16z m0-127c-27 0-50 22-50 49 0 3 1 6 1 8 14-1 30 5 38 9 11-5 36-18 56-18 2 0 3 1 5 1 0-28-22-49-50-49z m57-64c0 4-4 8-8 8-5 0-8-4-8-8l0-44-80 0 0 44c0 4-4 8-8 8-4 0-8-4-8-8l0-52-20-199c-1-5 3-9 7-9 0 0 1 0 1 0l16 0 0-36c0-5 4-8 8-8l88 0c4 0 8 4 8 8l0 36 16 0c4 0 8 3 8 8 0 0 0 0 0 1l-20 199z m-92-260l28 0 0-28-28 0z m72-28l-28 0 0 28 28 0z m-95 44l18 184 82 0 18-184z"/>
<glyph glyph-name="icone-fisioterapia-neurologica" unicode="&#112;" d="M0 209c0-24 10-45 26-60-4-10-7-21-7-33 0-44 33-80 73-80 9 0 18 2 26 5 14-25 39-41 67-41 31 0 58 20 71 49 13-29 40-49 71-49 28 0 53 16 67 41 8-3 17-5 26-5 9 0 18 2 27 6 19 9 32 23 40 42 0 0 0 1 0 1 4 10 6 20 6 31 0 12-3 23-7 33 16 14 26 36 26 60 0 25-10 47-27 62 7 12 11 27 11 42 0 40-27 74-63 79 0 2 0 3 0 5 0 35-24 64-57 70-11 27-35 45-61 45-26 0-48-16-59-38-11 22-33 38-59 38-26 0-50-18-61-44-33-7-57-36-57-71 0-1 0-3 0-4-36-6-63-40-63-80 0-15 4-30 11-42-17-15-27-37-27-62z m315 287c18 0 34-10 43-27-10-1-19-4-28-8-4-2-5-7-3-11 2-4 6-5 10-3 8 4 17 6 26 6 30 0 55-25 55-56 0-26-17-49-42-55-4-1-7-5-6-9 1-4 4-6 8-6 0 0 1 0 2 0 25 7 44 26 51 50 28-5 49-32 49-64 0-14-4-28-12-39 0 0 0-1 0-1 0 0 0 0 0 0-5-7-11-12-18-17-3-2-5-7-2-10 1-3 4-4 6-4 2 0 3 0 4 1 7 4 13 9 18 15 13-12 21-30 21-49 0-34-25-61-55-61-14 0-26 5-37 15-3 3-8 3-11 0-3-3-2-8 1-11 13-13 29-20 47-20 11 0 22 3 31 9 3-8 4-16 4-25 0-8-1-16-4-24 0 0 0-1 0-1-6-16-17-27-33-35-14-6-31-5-46 2-2 1-4 3-6 5-4 2-8 1-11-2-3-3-2-8 2-11 0 0 1-1 2-1-12-21-32-33-54-33-35 0-63 32-63 71l0 352c0 2 0 4 0 5 2 29 24 52 51 52z m-261-253c1-1 2-1 4-1 2 0 5 1 6 4 3 3 1 8-2 10-7 5-13 10-18 17 0 0 0 0 0 0 0 0 0 1 0 1-8 11-12 25-12 39 0 32 21 59 49 64 7-24 26-44 51-50 1 0 2 0 2 0 4 0 7 2 8 6 1 4-2 8-6 9-25 6-42 29-42 55 0 31 25 56 55 56 9 0 18-2 26-6 4-2 9-1 10 3 2 4 1 9-3 11-8 4-18 7-28 8 9 17 25 27 43 27 27 0 49-23 51-52 0-2 0-3 0-5 0-1 0-1 1-2l-1-351c0-39-28-70-63-70-22 0-42 12-53 33 0 0 1 0 2 1 3 2 4 7 1 11-2 3-7 4-11 1-9-7-20-10-32-10-31 0-57 28-57 64 0 9 1 17 4 24 9-5 20-8 31-8 18 0 35 7 48 20 3 3 3 8 0 11-3 3-8 3-11 0-10-10-23-15-37-15-30 0-55 27-55 61 0 19 8 37 21 49 5-6 11-11 18-15z m229 115c4-1 9 2 9 6 3 11 16 19 30 19 15 0 27-8 30-19 1-4 4-6 8-6 0 0 1 0 1 0 5 1 7 5 6 10-4 17-23 30-45 30-21 0-40-13-45-30-1-4 2-9 6-10z m144-157c0-1 1-1 1-1 4 0 7 3 8 6 1 5-2 9-6 10-8 2-17 15-17 34 0 19 9 32 17 34 5 1 7 5 6 9 0 4-5 7-9 6-17-4-30-24-30-49 0-25 12-45 30-49z m-345 83c9-2 18-16 18-34 0-17-8-30-15-33-4-2-6-7-4-11 1-2 4-4 7-4 1 0 2 0 4 1 14 7 23 25 23 47 0 24-12 45-29 49-4 1-9-2-10-6 0-4 2-8 6-9z m68 74c4-1 8 2 9 6 3 11 15 19 30 19 15 0 28-9 30-20 0-4 4-6 7-6 1 0 1 0 2 0 4 1 7 4 6 9-4 18-23 32-45 32-22 0-41-13-45-30-1-4 1-9 6-10z m181-238c-16-15-22-38-16-54 2-3 4-5 8-5 1 0 2 0 2 0 4 2 7 6 5 10-4 11 1 27 12 38 11 11 25 16 33 10 4-2 9-1 11 3 2 4 1 9-3 11-15 9-36 4-52-13z m-192 1c9 3 22-2 31-12 11-11 17-27 12-38-1-4 1-8 5-10 1 0 2 0 3 0 3 0 6 2 7 5 6 16 0 39-16 54-14 15-32 20-47 15-4-1-6-6-5-10 2-4 6-6 10-4z m225 136c0 0-5-21-21-30-6-3-13-4-21-3 0 1 0 2 0 3 0 20-9 38-22 45-4 2-8 0-10-4-2-3-1-8 3-10 6-3 13-14 13-31 0-16-7-28-14-31-4-1-6-6-4-10 1-3 4-5 7-5 1 0 2 0 3 1 10 4 17 14 21 27 3-1 7-1 10-1 8 0 15 2 22 6 21 12 28 38 29 39 1 4-2 8-6 9-4 1-8-1-10-5z m-203-43c7-4 14-6 22-6 3 0 6 0 10 1 3-13 11-23 21-27 1 0 2 0 3 0 3 0 6 2 7 5 2 4 0 8-4 10-7 2-15 14-15 30 0 13 5 26 13 30 4 2 5 7 2 11-2 3-7 5-10 2-12-7-20-24-20-43 0-1 0-2 0-3-8-1-15 0-21 3-15 9-21 29-21 29-1 4-5 7-9 6-4-1-7-5-6-10 1-1 7-26 28-38z"/>
<glyph glyph-name="icone-fisioterapia-ortopedica" unicode="&#113;" d="M512 440c0 3-1 6-3 8l-61 61c-5 4-11 4-16 0l-62-62c-34 20-74 31-114 31-122 0-222-99-222-222 0-40 11-80 32-114l-63-62c-4-5-4-11 0-15l61-62c2-2 5-3 8-3 3 0 6 1 8 3l62 63c34-21 74-32 114-32 122 0 222 100 222 222 0 40-11 80-32 114l63 62c2 2 3 5 3 8z m-440-414l-46 46 92 92c4 4 6 10 6 15l0 43c0 2 1 5 1 7 3 21 21 37 42 37 3 0 5-1 8-1 9-2 17-6 23-12 7-7 11-15 12-24 2-10 9-17 19-18 9-2 17-6 23-12 9-9 13-20 13-31 0-3 0-5 0-8-1-1-1-3-2-4 0 0 0 0 0 0 0-1 0-2 0-2 0 0 0-1 0-1-6-15-19-25-34-28-2 0-5 0-7 0l-43 0c-6 0-11-3-15-7z m385 230c0-111-90-201-201-201-35 0-68 9-98 26l21 22 43 0c4 0 7 0 11 1 23 4 42 19 50 41 0 1 1 3 1 4 0 0 0 0 0 1 1 1 1 4 2 5 0 1 0 1 0 1 1 4 1 8 1 12 0 17-7 33-19 46-10 9-22 16-36 18-2 14-9 26-18 36-10 10-22 16-36 18-3 1-7 1-11 1-31 0-58-23-64-54 0-4 0-8 0-11l0-43-22-21c-17 29-26 63-26 98 0 111 90 201 201 201 35 0 68-9 98-26l-21-22-43 0c-4 0-7 0-11-1-13-2-25-8-35-18-25-25-25-66 0-92 10-9 22-16 36-18 2-14 9-26 18-36 13-12 29-19 46-19 1 0 1 0 1 0 2 0 5 0 7 1 0 0 1 0 1 0 1 0 2 0 3 0 0 0 0 0 0 0 3 1 6 1 8 2l0 0c1 1 2 1 3 1 0 0 0 0 0 0 2 1 5 2 7 3 0 0 0 0 0 0 1 1 2 1 3 2 2 1 4 2 5 3l1 1c0 0 0 0 0 0 1 1 2 1 3 2 1 1 2 2 3 3 0 0 0 0 0 0 2 2 3 3 5 5 0 0 0 0 0 0 0 1 1 1 1 2 7 9 11 19 13 29 1 4 1 7 1 11l0 42 22 22c17-30 26-63 26-98z m-63 92c-4-4-6-10-6-15l0-43c0-2-1-5-1-7-1-7-4-14-8-20-1 0-1 0-1-1-1-1-2-2-3-3 0 0 0 0 0 0-1 0-1-1-2-1 0-1 0-1-1-1 0-1 0-1-1-1 0 0-1-1-1-1l-1-1c-1 0-2-1-3-2 0 0 0 0 0 0-1 0-2 0-2-1 0 0 0 0 0 0-2-1-3-1-4-2l-1 0c0 0-1 0-2 0-1-1-3-2-5-2 0 0 0 0 0 0-1 0-2 0-2 0-1 0-1 0-1 0-1 0-3-1-5-1-11 0-22 5-30 13-7 7-11 15-12 24-2 9-9 17-19 18-9 1-17 6-24 12-17 17-17 45 0 62 7 6 15 10 24 12 2 0 5 0 7 0l43 0c5 0 11 3 15 7l31 31c0 0 0 0 0 0l61 61 46-46z"/>
<glyph glyph-name="icone-fisioterapia-pelvica" unicode="&#114;" d="M388 0c-9 0-18 0-27 0-1 1-2 1-2 1-18 3-33 10-46 21-13 13-24 27-34 43-1 3-3 6-5 9-14-10-20-10-36-1-8-11-16-23-24-35-12-15-27-27-46-33-5-2-11-3-17-5-9 0-18 0-27 0-1 1-2 1-3 1-22 5-40 16-49 37-9 18-8 36 2 54 8 16 11 34 6 52-4 14-13 25-22 35-28 30-46 65-54 105-2 8-3 16-4 24 0 11 0 21 0 32 0 1 1 2 1 3 7 54 68 86 118 62 22-11 37-29 43-53 1-2 2-4 4-6 9 16 16 19 34 15 1 0 3 0 3 1 2 2 4 3 5 5-3 4-6 8-9 11-14-8-24-8-34 0-8 7-11 19-6 29 5 11 15 15 31 13 0 7 0 13 0 19-12-3-22 0-29 10-6 8-6 17-1 26 7 11 17 14 30 11 0 9 0 17 0 26 44 0 88 0 132 0 0-5 0-9 0-13 0-4 0-9 0-13 13 3 22 0 28-9 6-8 7-17 2-26-7-12-17-15-30-12 0-7 0-13 0-19 14 3 25-2 30-13 5-9 3-21-4-29-10-8-21-9-36 0-2-4-5-7-8-12 0 0 1-1 2-1 2-4 5-5 10-3 10 4 21-1 27-11 1-1 2-3 3-6 2 3 3 4 3 6 11 41 51 67 92 61 37-5 68-38 71-75 2-34-4-66-18-98-11-26-27-48-46-68-6-6-11-14-14-22-8-20-5-39 5-58 15-31 5-64-25-81-8-4-17-7-26-10z m-243 351c-6 16-15 28-29 36-38 23-91 0-98-44-3-19-1-38 2-56 7-36 23-67 48-94 6-7 13-14 18-22 17-29 18-58 2-87-12-24-2-51 22-62 11-5 22-5 33-5 15 0 28 5 39 13 18 14 31 33 41 53 6 11 9 22 8 34 0 3-1 5-4 6-12 7-21 18-26 31-1 3-2 5-5 5-10 3-18 7-26 14-13 11-20 25-21 40-9 3-18 4-26 8-25 12-33 42-11 62 2 3 2 4 0 7-9 17-5 38 9 51 7 6 15 9 24 10z m218-138c-4-28-19-46-48-54-2 0-4-2-4-4-6-14-14-25-27-32-1 0-3-2-3-2 0-8-1-16 2-23 5-17 14-33 26-46 7-9 15-17 24-23 16-12 35-13 54-11 15 2 28 9 36 23 8 14 8 29 0 43-9 18-12 36-9 55 3 18 10 32 22 45 30 31 50 66 56 109 2 15 4 31 2 46-5 41-43 65-82 55-22-6-37-20-45-43 1 0 2 0 3 0 28-5 43-35 30-60-3-4-2-6 1-8 7-7 11-15 12-25 0-17-9-29-24-36-8-4-17-6-26-9z m-153 40c0 1 0 1 0 2-8 11-12 23-12 37 0 1-1 3-2 4-10 10-20 20-30 30-11 10-24 11-34 2-10-8-11-23-3-34 3-4 7-8 10-12 10-11 19-23 22-38 3-10 3-21 5-31 2-17 16-33 32-36 2 7 6 14 13 18-2 3-3 4-4 6-6 9-9 19-9 30 0 10 5 17 12 22z m92 0c21-19 10-38 0-58 6-4 10-11 12-19 2 1 3 1 5 2 1 1 3 2 5 2 16 10 23 24 23 43 0 15 4 29 13 42 6 10 14 19 22 28 9 11 8 27-2 35-10 9-24 8-34-2-9-9-18-18-27-27-3-3-6-6-5-12 0-3-1-7-2-11-3-8-6-15-10-23z m-95 218c22 0 43 0 65 0 0-6 0-11 0-17-22 0-43 0-65 0 0-8 0-16 0-24 33 0 65 0 98 0 0 8 0 16 0 24-6 0-11 0-16 0 0 6 0 11 0 17 6 0 11 0 16 0 0 8 0 16 0 24-33 0-65 0-98 0 0-8 0-16 0-24z m98-58c-33 0-65 0-98 0 0-18 8-32 22-41 18-11 36-11 54 0 14 9 22 23 22 41z m-57-302c0-6 0-12 0-18 0-6 3-10 8-10 5 0 8 4 8 10 0 12 0 23 0 35 0 4 1 5 4 7 16 5 26 16 29 33 0 4 1 9-3 12-5 3-9 2-13 0-9-5-20-8-30-6-8 2-15 4-23 7-7 3-13-1-13-9 0-2 0-3 0-5 4-16 13-27 29-32 3-2 4-3 4-6 0-6 0-12 0-18z m8 137c21 0 39 17 41 39 1 8-6 13-14 9-18-9-36-9-54 0-8 4-15 0-14-9 1-22 19-39 41-39z m-41-18c1-24 22-43 46-39 20 3 35 19 36 39 0 8-6 12-13 9-1 0-1 0-1-1-18-9-36-9-54 0-8 4-14 0-14-8z m41 76c22 0 40 17 41 38 0 9-5 13-13 9-18-8-37-8-56 0-8 4-14 0-13-9 1-21 19-38 41-38z m-131-34c-9-6-11-15-7-24 4-10 19-18 29-15-3 15-11 28-22 39z m240-40c10 0 19 3 26 11 8 9 6 23-4 29-11-11-19-24-22-40z m-175 115c-5 0-8-4-8-8 0-5 4-8 8-8 5 0 8 4 8 8 0 4-4 8-8 8z m140-8c0 4-4 8-8 8-4 0-8-4-8-8 0-4 4-8 8-8 5 0 8 3 8 8z m-140 124c0 4-4 7-8 7-5 1-8-3-8-7 0-5 3-8 8-8 4 0 8 3 8 8z m140-9c5 0 8 4 8 8 0 5-3 8-8 8-4 1-8-3-8-8 0-4 4-8 8-8z m-140-57c0 4-4 7-8 7-5 0-8-3-8-8 0-4 4-8 8-8 4 1 8 5 8 9z m148 0c0 4-3 7-8 7-4 0-8-3-8-7 0-5 4-9 9-9 4 1 7 4 7 9z m-133-78c-2-1-3-2-6-3 5-2 5-9 12-5-2 3-4 5-6 8z m108-4c-3 2-4 3-6 4-2-3-4-6-6-9 7-3 7 4 12 5z"/>
<glyph glyph-name="icone-fisioterapia-pilates" unicode="&#115;" d="M345 232c-64 0-116-52-116-116 0-64 52-116 116-116 64 0 116 52 116 116 0 64-52 116-116 116z m0-10c18 0 36-5 51-13-17-4-34-6-51-6-17 0-35 2-51 6 15 8 33 13 51 13z m-60-19c19-5 39-7 60-7 21 0 41 2 60 7 7-5 13-10 18-16-24-9-51-13-78-13-28 0-54 4-78 13 5 6 11 11 18 16z m-24-23c26-9 55-14 84-14 29 0 58 5 83 14 5-5 8-11 11-17-28-12-60-19-94-19-34 0-66 7-94 19 3 6 6 12 10 17z m-14-24c30-12 63-20 98-20 35 0 68 8 97 20 3-5 5-12 6-18-30-15-66-23-103-23-37 0-73 8-103 23 1 6 3 13 5 18z m98-146c-18 0-36 5-51 13 16-3 34-5 51-5 17 0 34 2 51 5-15-8-33-13-51-13z m69 26c-22-6-45-10-69-10-24 0-47 4-69 10-10 8-18 19-24 30 28-12 60-18 93-18 33 0 65 6 93 18-6-12-15-22-24-30z m29 41c-29-14-63-21-98-21-35 0-69 7-98 21-3 7-5 15-6 24 30-15 66-24 104-24 37 0 74 9 104 24-1-9-3-17-6-24z m-98 8c-38 0-75 9-105 25-1 2-1 4-1 6 0 5 1 9 1 14 31-15 67-23 105-23 37 0 74 8 104 23 1-4 1-9 1-14 0-2 0-4 0-6-30-16-67-25-105-25z m-126 126l-2 76c-2 22-13 41-30 52 0 1 0 2 0 2-2 4-5 6-9 7l-7 0c-3 0-6-1-8-3l-1 0 0 10c11 7 19 17 25 30 0 0 1-1 1-1 1 0 1 0 2 0 9 0 17 7 18 17 1 6 0 11-3 15-1 0-1 1-1 1 0 2 0 5 0 7l0 10c0 24-14 45-36 54-3 14-15 24-30 24-15 0-27-10-30-24-22-9-37-30-37-54l0-10c0-2 1-5 1-7 0 0-1-1-1-1-3-4-4-9-3-15 1-10 9-17 18-17 1 0 1 0 2 0 0 0 1 1 1 1 5-13 14-23 25-30l0-10-1 0c-2 2-5 3-8 3l-7 0c-4-1-7-3-9-7 0 0 0-1 0-2-17-11-28-30-30-52l-2-76-4-9c-3-8-2-17 4-22 3-3 8-4 12-4l10 0 0-144c-11-3-18-13-18-25 0-4 3-7 7-7l56 0c4 0 7 3 7 7l0 9c0 3-1 6-2 8 1 1 1 3 1 5 1 1 2 4 2 6l5 125c0 1 3 1 3 0l4-125c0-2 1-5 3-6 0-2 0-4 0-5-1-2-2-5-2-8l0-9c0-4 3-7 7-7l56 0c4 0 8 3 8 7 0 12-8 22-19 25l1 144 9 0c5 0 10 2 14 6 4 5 5 13 2 20z m-23 199c2-2 2-5 2-7-1-5-4-8-7-8 1 5 2 11 3 17 1-1 2-2 2-2z m-58 92c8 0 14-5 18-11-4 1-8 2-12 2l-12 0c-4 0-8-1-12-2 4 6 10 11 18 11z m-60-99c0 2 0 5 2 7 0 0 1 1 2 2 0-6 2-12 3-17-3 0-6 3-7 8z m10 29c-1-1-2-2-2-3-1-2-2-4-3-6 0 0 0 0-1 0 0 0 0-1 0-1 0 1 0 1 0 2l0 10c0 26 22 48 50 48l12 0c28 0 50-22 50-48l0-10c0-1 0-1 0-2 0 0 0 1 0 1-1 0-1 0-1 0-1 2-2 4-3 6 0 1-1 2-2 3-11 16-29 25-50 25-21 0-39-9-50-25z m4-17l0 1c0 3 1 6 3 8 0 1 1 1 1 2 9 13 25 21 42 21 17 0 33-8 42-21 0-1 1-1 1-2 2-2 3-5 3-8l0-1c0-26-20-57-46-57-26 0-46 31-46 57z m64-80l3 0c-4-8-12-14-21-14-9 0-17 6-21 14l3 0c2 0 4 2 4 5l0 10c5-2 9-3 14-3 5 0 10 1 14 3l0-10c0-2 2-5 4-5z m-57 2l7 1c2-16 16-27 32-27 16 0 30 11 32 27l7-1c8-20 13-46 5-59-1-1-1-2-1-3l0-21-86 0 0 21c0 1 0 2-1 3-8 13-3 39 5 59z m84-112l-90 0 2 18 86 0z m-114-39c-2 0-4 1-5 2-3 2-3 6-2 9l5 11c0 0 0 1 0 2l2 76c2 13 7 25 14 34-4-15-6-34 2-46l0-26c0 0 0 0 0 0l-2-25c-1-1-2-2-2-3l-2-34-10 0z m52-176l-50 0c2 7 8 13 15 13l4 0c2 0 3 0 4 1 0 1 0 1 1 1l24 0c0 0 0 0 0-1-1-1 0-3 0-4 1-1 2-2 2-4l0-6z m29 150c0 6-6 11-12 11-6 0-12-5-12-11l-4-124-33 0 0 140 2 39 94 0 2-39 0-140-33 0z m55-150l-50 0 0 6c0 2 1 3 1 4 1 1 2 3 1 4 0 1 0 1 0 1l24 0c1 0 1 0 1-1 1-1 2-1 4-1l4 0c7 0 13-6 15-13z m8 179c-2-2-4-3-6-3l-10 0-2 34c0 1-1 3-2 3l-2 25c0 0 1 0 1 0l0 26c7 12 5 31 1 46 8-9 12-21 14-33l2-77c0-1 0-2 0-2l5-11c1-3 1-6-1-8z m-61 194c0 2-1 4-4 4-2 0-4-1-4-4 0 0-2-1-6-1-4 0-6 1-6 1 0 2-2 4-4 4-3 0-4-2-4-4 0-6 6-10 14-10 8 0 14 4 14 10z m-37 35c-3 0-6-3-6-8 0-4 3-7 6-7 4 0 7 3 7 7 0 5-3 8-7 8z m46-15c3 0 6 3 6 7 0 5-3 8-6 8-4 0-7-3-7-8 0-4 3-7 7-7z"/>
<glyph glyph-name="icone-fortalece-assoalho-pelvico" unicode="&#116;" d="M0 311c0 9 0 19 0 28 0 1 1 3 1 4 7 46 52 78 98 68 32-7 54-27 63-59 1-2 2-4 4-6 7 15 19 21 36 15 2 2 4 4 6 6-3 4-6 8-9 12-14-9-24-9-34-1-8 7-10 19-6 29 5 11 15 15 31 13 0 7 0 13 0 19-12-3-22 0-29 9-5 9-6 18-1 26 7 12 17 15 30 12 0 9 0 17 0 26 44 0 88 0 132 0 0-9 0-17 0-26 12 3 22 0 29-9 5-9 6-18 1-27-7-11-17-14-30-11 0-6 0-13 0-19 16 2 26-2 31-13 4-10 2-22-6-29-10-8-20-8-34 1-3-4-6-8-9-12 2-2 4-4 6-6 17 6 29 0 36-15 2 2 3 4 4 6 10 39 47 65 86 61 41-4 73-37 76-77 2-37-6-72-21-105-11-22-27-42-44-60-7-8-12-17-15-27-5-19-2-36 6-53 16-31 6-64-25-81-8-5-17-7-26-10-8 0-17 0-25 0-6 2-12 3-18 5-19 6-34 18-46 34-9 11-16 23-24 35-12-10-24-10-36 0-8-12-15-24-24-35-12-16-27-28-46-34-6-2-12-3-18-5-8 0-17 0-25 0-1 1-3 1-4 1-19 4-35 13-45 30-13 19-13 40-2 60 8 17 11 35 6 53-4 14-13 25-23 35-28 30-45 65-53 106-2 8-3 17-4 26z m363-98c0 1 0 1 0 1-4-29-20-47-48-55-2 0-4-2-4-4-5-14-14-25-27-32-1 0-3-2-3-3 0-7-1-15 1-21 8-24 22-45 41-63 18-18 41-22 66-18 19 3 33 14 39 34 3 11 1 22-5 33-13 26-14 52-1 78 6 11 14 21 23 30 25 28 42 61 47 99 3 16 4 32 2 48-4 36-37 60-74 56-24-3-47-22-53-45 1 0 2-1 3-1 28-4 43-35 30-59-2-4-2-6 1-9 10-9 14-21 11-35-4-12-12-21-23-26-8-3-17-5-26-8z m-218 138c0 1 0 1 0 1-10 29-37 46-69 44-27-2-53-24-58-52-3-16-1-32 1-48 5-39 21-72 47-101 7-8 14-16 20-24 17-28 17-57 2-87-12-25-4-51 22-62 28-11 54-7 77 12 16 14 28 32 37 51 6 10 8 21 7 33 0 2-2 4-3 5-13 7-22 18-26 32-2 2-3 4-6 4-16 4-28 13-37 26-6 9-9 19-10 28-9 3-18 5-26 8-24 12-34 41-11 63 2 2 2 3 0 6-9 17-5 38 9 51 7 6 15 9 24 10z m66-98c-9 12-13 25-13 40 0 0 0 1-1 2-11 11-23 23-34 34-6 6-14 7-21 5-17-5-24-25-14-39 5-5 9-11 14-16 15-17 23-37 23-60 0-8 2-16 7-23 6-10 15-17 27-20 1 9 5 15 12 19-3 5-7 10-8 15-7 17-8 32 8 43z m104-76c0-1 0-1 1 0 18 6 30 22 31 43 0 22 8 41 22 58 5 5 9 10 13 16 9 11 8 26-2 35-10 8-24 7-34-2-10-11-20-21-30-31-1-1-2-3-2-5-1-9-2-17-5-25-3-5-5-9-8-13 12-10 15-19 11-34-2-8-6-16-9-23 4-6 8-12 12-19z m-108 319c0-9 0-17 0-25 22 0 43 0 65 0 0-6 0-11 0-17-22 0-43 0-65 0 0-8 0-16 0-24 33 0 66 0 98 0 0 8 0 16 0 24-5 0-10 0-16 0 0 6 0 11 0 17 6 0 11 0 17 0 0 7-1 13 0 19 0 5-2 6-6 6-24 0-49 0-73 0-7 0-13 0-20 0z m98-83c-33 0-65 0-98 0-2-21 17-48 47-50 27-1 52 23 51 50z m-57-302c0-6 0-13 0-19 0-2 0-4 2-6 2-3 5-4 8-3 4 1 6 5 6 9 0 11 0 23 0 35 0 4 1 6 5 8 16 6 26 18 28 35 1 11-6 15-15 10-17-8-35-9-52 0-4 2-7 3-11 0-4-2-4-6-4-10 0-1 0-3 1-4 3-16 13-26 28-32 3-1 4-2 4-6 0-6 0-11 0-17z m8 137c22 0 40 18 41 39 0 8-6 13-13 9-19-9-37-9-56 0-7 4-13-1-13-9 1-21 19-39 41-39z m41-19c0 9-6 13-13 10-19-10-37-10-56 0-7 3-13-1-13-9 1-22 19-40 41-40 22 0 40 18 41 39z m-41 77c22 0 40 18 41 39 0 8-5 12-13 9-19-9-38-9-56 0-8 3-13-1-13-9 1-22 19-39 41-39z m-131-33c-6-5-10-11-9-18 1-13 17-25 31-23-3 16-11 29-22 41z m240-41c10 0 18 3 25 10 9 9 8 23-3 31-11-12-19-25-22-41z m-167 107c0 4-4 8-8 8-4 0-8-3-8-8 0-4 3-8 8-8 4-1 8 3 8 8z m132 0c0 4-4 8-8 8-4 0-8-4-8-8 0-5 4-8 8-8 5 0 8 3 8 8z m-140 58c0 4-4 8-9 8-4-1-8-4-7-9 0-4 4-8 8-8 4 0 8 4 8 9z m140-9c5 0 8 4 8 9 0 4-3 8-7 8-5 0-9-4-9-8 0-5 4-9 8-9z m-140 75c0 4-4 8-9 8-4 0-8-4-7-9 0-4 4-8 8-8 4 0 8 5 8 9z m148 0c0 4-4 8-8 8-4 0-8-4-8-8 0-5 4-9 8-9 5 0 8 4 8 9z m-127-152c-2 3-4 6-6 8-2-1-3-2-6-4 5-1 5-9 12-4z m90 0c7-4 7 3 12 4-3 2-4 3-6 4-2-3-4-5-6-8z"/>
<glyph glyph-name="icone-fortalecimento-musculos" unicode="&#117;" d="M352 190c3-4 1-9-3-12-4-2-10 0-12 4-45 79-122 97-209 49-3-2-7-2-10 1-32 32-68 47-108 44-5-1-10 3-10 8 0 5 3 9 8 9 44 4 83-11 118-44 92 50 177 28 226-59z m-27-51c3 3 9 2 12-2 3-4 2-9-2-12-79-60-156-60-230 1-4 3-4 9-1 12 3 4 8 5 12 1 67-55 136-55 209 0z m-89 258c-3 3-3 9 1 12 3 3 9 3 12-1 36-41 46-90 40-157 0-5-4-9-9-8-5 0-9 5-8 9 5 63-4 108-36 145z m7 34c1 5 6 8 11 7 5-1 8-6 7-10-3-11-7-23-11-30l-4-4-100-45c-12-5-20 1-28 14l-22 6c-11 3-17 15-15 28l15 81c3 16 16 30 34 32l118-3c15 0 31-7 45-20 100-89 194-221 215-308 9-36 3-76-14-111-1-2-3-4-5-5-156-66-282-79-386-35l-29-15c-5-3-10-1-12 3-2 5-1 10 4 12l32 17c2 1 5 2 8 1 99-43 221-32 373 32 15 31 19 66 12 97-20 82-112 212-209 299-12 10-24 15-34 16l-118 2c-8-1-15-9-17-17l-15-81c0-4 1-8 3-8l24-7c3 0 5-2 6-4 5-8 7-10 8-9l97 43c3 6 6 15 7 22z"/>
<glyph glyph-name="icone-funcionamento" unicode="&#118;" d="M256 0c-68 0-133 27-181 75-48 48-75 113-75 181 0 68 27 133 75 181 48 48 113 75 181 75 68 0 133-27 181-75 48-48 75-113 75-181 0-68-27-133-75-181-48-48-113-75-181-75z m0 482c-60 0-117-24-160-66-42-43-66-100-66-160 0-60 24-117 66-160 43-43 100-66 160-66 60 0 117 23 160 66 43 43 66 100 66 160 0 60-23 117-66 160-43 42-100 66-160 66z m-15-30l30 0 0-40-30 0z m115-75l28 28 21-21-28-28z m56-106l40 0 0-30-40 0z m-56-136l21 21 28-28-21-21z m-115-35l30 0 0-40-30 0z m-134 28l28 28 21-21-28-28z m-47 143l40 0 0-30-40 0z m47 113l21 21 28-28-21-21z m255-143l-121 0 0 121 30 0 0-91 91 0z"/>
<glyph glyph-name="icone-hidropilates" unicode="&#119;" d="M512 266c0 0 0 1 0 1-6 136-119 245-256 245-137 0-250-109-256-245 0 0 0-1 0-1 0 0 0-1 0-1 0-3 0-6 0-9 0-141 115-256 256-256 141 0 256 115 256 256 0 3 0 6 0 9 0 0 0 1 0 1z m-256 229c105 0 194-68 226-162-20 0-30 6-41 12-11 7-24 15-49 15-25 0-38-8-50-15-11-6-20-12-41-12-20 0-29 6-41 12-11 7-24 15-49 15-25 0-38-8-50-15-11-6-20-12-41-12-20 0-29 6-40 12-10 6-21 13-39 15 38 80 120 135 215 135z m-223-152c18-1 27-6 38-12 11-7 24-15 49-15 25 0 38 8 50 15 11 6 20 12 41 12 20 0 29-6 41-12 11-7 24-15 49-15 25 0 38 8 50 15 11 6 20 12 41 12 20 0 29-6 40-12 12-7 25-15 50-15 2 0 3 1 5 2 3-14 6-29 7-44-26-1-41-5-55-10-15-5-30-9-59-9-30 0-44 4-60 9-15 5-32 10-64 10-32 0-49-5-65-10-15-5-29-9-59-9-29 0-44 4-59 9-14 5-29 9-55 10 2 24 7 47 15 69z m223-326c-104 0-192 66-225 159 19-1 29-6 40-13 11-7 24-14 49-14 25 0 38 7 50 14 11 7 20 13 41 13 20 0 29-6 41-13 11-7 24-14 49-14 25 0 38 7 50 14 11 7 20 13 41 13 20 0 29-6 40-13 10-5 20-12 38-14-40-78-121-132-214-132z m221 149c-17 1-26 6-36 12-11 7-24 15-49 15-25 0-38-8-50-15-11-7-20-12-41-12-20 0-29 5-41 12-11 7-24 15-49 15-25 0-38-8-50-15-11-7-20-12-41-12-20 0-29 5-40 12-12 7-25 15-50 15-1 0-3-1-4-1-6 20-9 42-9 64 0 0 0 1 0 1 24-1 37-5 51-9 16-5 32-10 64-10 32 0 49 5 65 10 15 5 29 9 59 9 30 0 44-4 59-9 16-5 32-10 65-10 32 0 48 5 64 10 14 4 27 8 51 9 0 0 0-1 0-1 0-32-6-62-18-90z"/>
<glyph glyph-name="icone-hidroterapia" unicode="&#120;" d="M43 23l426 0c24 0 42 18 42 43l0 234c0 25-18 44-42 44l-174 0 0 92c0 17 14 31 31 31 17 0 32-14 32-31 0-6 5-11 11-11 6 0 11 5 11 11 0 29-24 53-54 53-29 0-54-24-54-53l0-31-127 0 0 31c0 17 15 31 33 31 18 0 33-14 33-31 0-6 5-11 11-11 6 0 11 5 11 11 0 29-25 53-55 53-30 0-55-24-55-53l0-92-80 0c-24 0-42-19-42-44l0-234c0-25 18-43 42-43z m230 360l0-72-128 0 0 72z m-250-83c0 11 7 22 20 22l80 0 0-66c0-7 5-11 11-11 6 0 11 4 11 11l0 33 128 0 0-33c0-7 5-11 11-11 6 0 11 4 11 11l0 66 174 0c13 0 20-11 20-22l0-234c0-12-8-20-20-20l-426 0c-12-1-20 7-20 20z m52-164c14 0 21-5 29-11 9-7 21-16 43-16 21 0 33 9 43 16 8 6 14 11 29 11 14 0 21-5 29-11 10-7 21-16 43-16 22 0 33 9 43 16 8 6 15 11 29 11 15 0 21-5 30-11 9-7 21-16 42-16 6 0 11 5 11 11 0 7-5 11-11 11-14 0-21 5-29 12-9 6-21 15-43 15-22 0-33-8-43-15-8-7-15-12-29-12-14 0-21 5-29 12-10 6-21 15-43 15-22 0-33-8-43-15-8-7-15-12-29-12-15 0-21 5-30 12-9 6-21 15-42 15-6 0-11-5-11-11 0-6 5-11 11-11z m0 93c14 0 21-5 29-11 9-7 21-15 43-15 21 0 33 8 43 15 8 6 14 11 29 11 14 0 21-5 29-11 10-7 21-15 43-15 22 0 33 8 43 15 8 6 15 11 29 11 15 0 21-5 30-11 9-7 21-15 42-15 6 0 11 4 11 11 0 6-5 11-11 11-14 0-21 5-29 11-9 6-21 15-43 15-22 0-33-8-43-15-8-6-15-11-29-11-14 0-21 5-29 11-10 6-21 15-43 15-22 0-33-8-43-15-8-6-15-11-29-11-15 0-21 5-30 11-9 6-21 15-42 15-6 0-11-5-11-11 0-6 5-11 11-11z"/>
<glyph glyph-name="icone-instagram" unicode="&#121;" d="M512 311c0-37 0-73 0-110 0-3-1-5-1-8 0-25 0-50-6-75-14-64-62-108-128-114-22-2-44-2-67-3-2 0-4-1-6-1-32 0-64 0-96 0-3 0-5 1-8 1-24 1-49 0-74 4-57 9-96 42-115 98-8 23-10 47-10 71 0 8-1 17-1 25 0 38 0 76 0 114 0 7 0 15 1 22 1 16 2 33 4 49 11 63 46 104 108 120 17 4 34 4 51 6 15 1 29 1 44 2 32 0 64 0 96 0 3 0 5-1 8-1 24-1 49-1 73-4 59-10 99-43 117-101 7-22 9-45 9-69 0-8 1-17 1-26z m-260 162c-36-2-76-2-116-6-41-4-70-26-85-65-7-19-10-39-10-59 0-49-1-99 0-149 0-21 1-42 4-62 8-52 47-87 99-89 36-2 72-3 109-3 41 0 82 1 123 4 42 4 72 28 86 69 7 18 9 37 9 56 0 50 1 100 0 150 0 20-1 41-4 61-8 52-47 86-99 89-37 2-75 2-116 4z m-122-217c0 69 56 125 125 125 69 0 125-56 125-125 0-69-56-125-125-125-69 0-125 56-125 125z m210 0c0 47-38 85-85 85-47 0-85-38-85-85 0-47 38-85 85-85 47 0 85 38 85 85z m54 105c-17 0-30 14-30 30 0 17 14 30 30 30 17 0 30-14 30-30 0-17-14-30-30-30z"/>
<glyph glyph-name="icone-massagens-terapeuticas" unicode="&#122;" d="M243 503c2 0 3-1 5-1 23-6 44-29 37-62 13 2 26-1 38-5 38-15 61-41 65-81 3-23 1-45 2-68 0-2 0-4 0-6 2 0 4 0 6 0 21 0 42 0 63 0 27-1 47-18 52-45 0-2 0-4 0-7 0-19 0-38 0-57 0-7-2-9-9-9-8 0-16 0-26 0 0-2 0-4 0-6 0-46 0-91 0-137 0-8-2-10-10-10-14 0-28 0-42 0-7 0-9 2-9 10 0 45 0 91 0 136 0 2 0 4 0 6-2 1-3 1-3 1-11 0-21 0-31 0-2 0-4 0-4-3-3-15-7-31-9-46-1-7 1-14 2-21 3-16 6-32 8-48 2-17-9-32-27-35-16-2-31 9-34 26-4 24-9 47-12 71-1 9 2 18 4 27 0 0 0 1-1 2-7-7-13-13-20-20-1-1-1-4-1-6 0-22 0-45 0-68 0-18-11-30-29-32-14-2-29 10-32 25-1 3-1 5-1 7 0 29 0 57 0 85 0 9 3 16 8 22 4 4 7 9 11 14-3 0-4 0-6 0-29 0-58 0-88 0-3 0-5-1-7-5-5-12-11-24-16-37-5-14-14-22-29-22 0-2 0-4 0-6 0-24 0-49 0-73 0-8-3-10-11-10-14 0-28 0-41 0-8 0-10 2-10 10 0 45 0 91 0 136 0 2 0 4 0 7-9 0-17 0-26 0-4 0-7 1-9 4 0 22 0 44 0 66 4 2 9 4 14 5-8 7-11 17-14 27 0 6 0 11 0 17 0 1 1 1 1 2 5 22 22 37 44 40 20 2 41-9 51-29 0-1 1-2 2-3 10 10 21 13 35 13 2-1 4-1 6 0 2 0 4 1 4 3 4 8 10 15 18 19 17 8 33 16 49 24 10 4 16 10 20 18 7 12 14 24 21 36-5-1-9-2-13-2-26-2-47 15-53 41-5 23 8 48 31 57 4 1 8 2 11 3 5 0 10 0 15 0z m-100-214c-7 0-14 0-20-1-13-2-21-13-21-28 0-28 0-57 0-86 0-4-2-9-3-13-4-9-9-19-12-28-2-4-2-8-1-12 2-6 6-9 12-9 7 0 11 3 14 9 7 15 14 31 21 47 0 2 0 4 0 6 1 17 0 33 0 50 0 10 2 12 12 12 115 0 230 0 345 0 2 0 4 0 6 0-4 18-17 29-35 29-28 0-57 0-85 0-3 0-8 2-10 4-16 13-34 20-54 20-26 0-53 0-79 0-3 0-6-1-8-2-13-6-25-12-38-18-17-8-36-1-43 17 0 1-1 2-1 3z m354-68c-116 0-232 0-349 0 0-15 0-30 0-45 117 0 233 0 349 0 0 15 0 30 0 45z m-121 58c0 23 0 44-1 66-1 42-32 75-74 80-15 2-20 0-28-13-12-21-24-41-36-61-2-4-5-7-9-9-20-10-40-20-60-30-8-4-13-11-11-18 2-12 14-18 25-12 23 11 47 23 71 35 3 2 7 5 9 9 9 15 18 31 27 46 3 5 6 6 12 4 17-9 27-27 25-46-1-9-2-18-3-27 19-3 37-10 53-24z m-61-117c-18 0-34 0-51 0-1 0-3-2-4-3-6-7-12-15-17-22-2-3-4-6-4-10 0-29 0-58 0-87 0-10 8-17 18-17 9 0 16 8 16 19 0 24 0 48 0 72 0 4 1 7 4 10 11 11 22 22 34 33 1 1 2 3 4 5z m114 0c0-47 0-93 0-138 11 0 22 0 33 0 0 46 0 92 0 138-11 0-22 0-33 0z m-66 0c-7 0-13-1-19 0-6 1-11-1-15-6-1-3-2-5-3-8-1-6-3-12-4-19-1-7-3-15-2-23 1-15 4-31 7-46 1-7 2-14 4-21 2-12 9-17 20-16 9 2 14 11 13 21-3 17-6 34-9 51-1 6-2 13-1 19 2 16 6 31 9 48z m-279-1c-12 0-23 0-34 0 0-46 0-92 0-137 11 0 22 0 33 0 0 2 0 3 0 4 0 24 0 48 0 72 0 1-1 2-2 3-11 11-13 22-7 36 3 8 6 15 10 22z m-33 75c20 0 36 16 37 35 0 21-16 37-37 38-20 0-36-17-36-37 0-20 16-36 36-36z m185 253c-20 0-36-16-37-36 0-20 17-37 36-37 21 0 37 16 37 36 0 20-16 37-36 37z m-149-268c-24 0-48 0-72 0 0-15 0-30 0-45 24 0 48 0 72 0 0 15 0 30 0 45z m212 139c-2-2-3-3-4-5-11-17-18-38-34-51 15 0 31 0 47 0 1 9 3 17 4 26 1 12-3 22-13 30z"/>
<glyph glyph-name="icone-melhora-equilibrio" unicode="&#65;" d="M511 66c-2-5-6-7-10-8-48-18-98-30-149-37-46-7-93-9-140-6-70 4-138 18-203 43-7 3-10 8-8 14 2 5 7 7 15 5 14-5 29-10 43-14 19-5 38-10 56-15 6 33 20 62 27 93 1 4 2 8 3 12 2 6 7 9 13 7 5-1 8-6 6-12-4-15-8-30-12-45 0-1-1-2-1-3 13-5 25-10 38-15 6 14 11 28 17 41 12 29 24 58 36 87 2 4 1 8-1 11-12 15-24 30-35 45-2 2-3 3-5 6-3-11-6-21-9-31-1-4-2-7-3-11-2-6-7-9-12-7-6 2-9 7-7 12 5 18 10 35 15 52 1 3 0 5-2 8-7 8-13 17-20 26-10 13-15 27-15 44 1 9 1 19 1 28 0 24-1 48-2 72 0 7 0 13 0 19 0 8 4 11 11 11 44 0 88 0 132 0 8 0 12-4 12-12-3-30-8-59-22-86 0-1-1-2-1-3-1-19-3-38 10-55 15-19 27-39 41-59 9-12 13-26 13-42 0-51 1-102 1-152 0-5 2-7 6-8 8-2 16-5 25-7 13-3 23-10 26-24 14 3 28 6 41 10 18 5 35 11 53 17 9 2 11 2 16-6 0-2 0-4 0-5z m-341 338c-1-12-1-23-2-35-1-13 3-24 11-34 25-31 50-63 75-95 7-9 12-19 14-31 4-30 9-60 13-91 2-13 4-27 6-42 13 3 25 5 37 8 0 2 0 4 0 5 0 51-1 102-1 152 0 12-3 22-10 31-13 20-27 40-41 60-11 15-16 32-14 51 1 3 1 6 1 9-30 4-59 8-89 12z m-4 74c1-17 2-35 3-52 0-1 3-2 4-2 29-4 58-8 87-12 3-1 5 0 6 3 3 10 6 19 9 28 3 12 4 23 7 35-39 0-77 0-116 0z m86-297c-1 0-1 0-1 0-15-34-30-69-44-105 5-3 9-6 14-9 13-8 23-18 24-34 9 0 18 0 27 0-7 50-14 99-20 148z m-28-148c1 1 1 2 2 2-3 3-5 7-8 9-14 11-29 22-47 27-9 2-17 6-26 10-3-7-6-14-8-20-3-9 2-17 11-18 10-2 20-4 30-5 15-2 31-3 46-5z m158 12c-1 6-4 7-8 8-8 3-17 5-25 8-10 4-20 4-30 2-9-3-19-5-29-7 0-5 0-9 1-13 0-6 3-9 9-8 6 0 12 1 17 2 22 2 43 5 65 8z m-253 318c0-14 3-28 12-41 4-5 3-11-2-15-5-3-11-1-14 4-13 18-17 37-15 59 0 7 5 11 11 10 6-1 9-5 9-12 0-2-1-3-1-5z m255-117c0-1 0-4-1-6-1-5-5-9-11-8-5 0-8 4-8 10 0 11-1 21-5 31-1 4-3 7-4 10-3 6-1 11 4 14 5 2 11 1 14-5 7-14 10-29 11-46z m-216-61c-6 0-10 4-10 10 0 5 4 10 9 10 6 0 11-5 11-10-1-6-5-10-10-10z"/>
<glyph glyph-name="icone-osteopatias" unicode="&#66;" d="M345 342c6-4 9-10 11-17 1-2 1-4 1-7l0-16 8 0c21 0 38-17 38-38 0-22-17-39-38-39l-8 0 0-22c0-9-4-18-11-24 5-4 9-10 10-17 1-2 1-4 1-7l0-15 8 0c21 0 39-18 39-39 0-22-18-39-39-39l-8 0 0-22c0-14-9-26-23-30-26-7-52-10-78-10-26 0-52 3-78 10-13 4-23 16-23 30l0 22-7 0c-22 0-39 17-39 39 0 21 17 39 39 39l7 0 0 15c0 10 5 19 12 24-7 6-12 15-12 24l0 22-7 0c-22 0-39 17-39 39 0 21 17 38 39 38l7 0 0 16c0 10 5 18 12 24-7 6-12 15-12 24l0 22-7 0c-22 0-39 17-39 38 0 22 17 39 39 39l7 0 0 16c0 17 14 31 32 31 2 0 4 0 7-1 20-5 41-7 62-7 21 0 42 2 63 7 17 4 33-6 37-23 1-2 1-5 1-7l0-16 8 0c21 0 39-17 39-39 0-21-18-38-39-38l-8 0 0-22c0-9-5-18-12-24z m-197-218c-13 0-24-10-24-23 0-13 11-23 24-23l31 0c4 0 7-4 7-8 0-4-3-8-7-8l-8 0 0-21c0-7 5-14 11-15 25-7 50-10 74-10 25 0 49 3 74 10 7 1 11 8 11 15l0 21-23 0c-4 0-8 4-8 8 0 4 4 8 8 8l47 0c12 0 23 10 23 23 0 13-11 23-23 23l-16 0c-4 0-8 4-8 8l0 23c0 2 0 3 0 4-2 8-10 13-19 11-22-5-44-7-66-7-22 0-44 2-66 7-1 1-2 1-3 1-9 0-16-7-16-16l0-23c0-5-4-8-8-8l-15 0z m0 163c-13 0-24-11-24-23 0-13 11-24 24-24l31 0c4 0 7-3 7-7 0-5-3-8-7-8l-8 0 0-22c0-7 5-13 11-15 25-6 50-10 74-10 25 0 49 4 74 10 7 2 11 8 11 15l0 22-23 0c-4 0-8 3-8 8 0 4 4 7 8 7l47 0c12 0 23 11 23 24 0 12-11 23-23 23l-16 0c-4 0-8 3-8 8l0 23c0 1 0 2 0 4-2 8-10 13-19 11-22-5-44-8-66-8-22 0-44 3-66 8-1 0-2 1-3 1-9 0-16-7-16-16l0-24c0-4-4-7-8-7l-15 0z m0 163c-13 0-24-11-24-24 0-13 11-23 24-23l31 0c4 0 7-3 7-8 0-4-3-7-7-7l-8 0 0-22c0-7 5-13 11-15 25-6 50-10 74-10 25 0 49 4 74 10 7 2 11 8 11 15l0 22-23 0c-4 0-8 3-8 7 0 5 4 8 8 8l47 0c12 0 23 10 23 23 0 13-11 24-23 24l-16 0c-4 0-8 3-8 7l0 24c0 1 0 2 0 3-2 9-10 14-19 12-22-5-44-8-66-8-22 0-44 3-66 8-1 0-2 0-3 0-9 0-16-7-16-15l0-24c0-4-4-7-8-7l-15 0z m69-8c0 4 4 8 8 8 4 0 8-4 8-8l0-47c0-4-4-7-8-7-4 0-8 3-8 7z m0-163c0 4 4 8 8 8 4 0 8-4 8-8l0-46c0-5-4-8-8-8-4 0-8 3-8 8z m0-163c0 5 4 8 8 8 4 0 8-3 8-8l0-46c0-4-4-8-8-8-4 0-8 4-8 8z"/>
<glyph glyph-name="icone-play" unicode="&#67;" d="M256 512c-141 0-256-115-256-256 0-141 115-256 256-256 141 0 256 115 256 256 0 141-115 256-256 256z m0-37c121 0 219-98 219-219 0-121-98-219-219-219-121 0-219 98-219 219 0 121 98 219 219 219z m-65-103c-14 0-26-12-26-28l0-176c0-21 22-34 41-24l152 88c8 5 14 14 14 24 0 10-6 19-14 24l-152 88c-5 3-10 4-15 4z"/>
<glyph glyph-name="icone-previne-disfuncoes" unicode="&#68;" d="M0 346c2 7 3 13 5 20 10 26 30 40 57 42 30 2 60 1 90 1 3 0 5 0 7 0 0 2 1 4 1 6 0 12-1 23 0 35 1 15 13 27 29 27 42 0 85 0 128 0 2 0 5 0 8 0 15-2 26-13 27-28 1-11 0-22 0-33 0-2 0-4 0-7 3 0 5 0 7 0 25 0 51 0 77 0 15 0 29-3 42-10 22-12 32-32 34-57 0-3 0-5 0-8 0-75 0-150 0-224 0-16-3-31-11-44-12-19-30-28-52-30-7-1-14-1-21-1-117 0-233 0-350 0-13 0-25 1-37 6-23 10-36 28-40 52 0 1 0 3-1 4 0 83 0 166 0 249z m255-290c60 0 120 0 179 0 4 0 8 0 12 0 19 2 34 10 41 29 2 8 4 16 4 24 0 75 0 150 0 226 0 2 0 4 0 7-2 23-14 38-36 44-6 1-13 2-19 2-120 0-240 0-359 0-5 0-10-1-14-1-18-3-32-11-38-29-2-7-3-15-3-23-1-75-1-151-1-227 0-2 1-4 1-6 1-20 9-35 28-42 8-3 18-4 26-4 60 0 120 0 179 0z m-74 353c50 0 100 0 150 0 0 13 1 26 0 39 0 6-3 8-9 9-2 0-3 0-4 0-41 0-83 0-124 0-2 0-3 0-5 0-5-1-8-3-8-8 0-13 0-27 0-40z m122-231c0-5 0-10 0-14 0-9 0-19-1-28 0-10-6-16-15-16-21-1-41-1-62 0-10 0-15 6-16 17 0 11 0 23 0 35 0 2 0 4 0 6-2 0-4 0-5 0-12 0-24 0-36 0-11 0-17 6-17 16 0 21 0 41 0 61 0 10 6 16 17 16 13 0 27 0 41 0 0 2 0 4 0 6 0 12 0 23 0 35 0 12 7 18 19 18 19 0 38 0 57 0 11 0 18-6 18-18 0-13 0-27 0-41 2 0 4 0 5 0 12 0 24 0 36 0 11 0 17-6 17-17 0-19 0-39 0-59 0-11-6-17-17-17-12 0-24 0-36 0-2 0-3 0-5 0z m-73 131c0-2 0-4 0-6 0-13 0-26 0-39 0-10-4-14-13-14-12 0-24 0-35 0-4 0-7 0-10 0 0-17 0-34 0-51 16 0 31 0 45 0 9 0 13-4 13-13 0-12 0-25 0-38 0-2 0-5 0-7 18 0 34 0 52 0 0 2 0 4 0 6 0 13-1 26 0 40 0 8 4 12 12 12 14 0 27 0 40 0 2 0 4 0 6 0 0 18 0 34 0 51-1 0-1 0-2 0-14 0-28 0-43 0-10 0-14 4-14 14 0 13 0 26 0 40 0 1 0 3 0 5-17 0-33 0-51 0z"/>
<glyph glyph-name="icone-promocao-relaxamento-muscular" unicode="&#69;" d="M0 42c3 4 6 5 11 5 9 0 19 0 29 0-10 16-11 32-3 48-6 3-11 5-16 8-9 6-9 15-1 22 22 19 44 38 66 57 7 5 11 12 13 19 10 30 20 59 30 89 7 22 22 37 45 44 17 5 33 10 50 15 0 0 1 1 2 1 0 1 0 1-1 1-13 12-20 27-19 46 1 13 0 26 1 38 3 27 28 46 55 45 27-1 49-23 50-50 1-13 0-27 0-41 0-15-7-27-18-37-1-1-2-2-3-3 0 0 0 0 0-1 15-4 30-9 45-14 24-7 40-22 48-46 9-29 19-58 29-86 2-8 7-15 13-20 22-19 44-37 66-56 9-8 8-17-1-24-5-2-10-4-15-7 10-15 10-31 0-48 9 0 17 0 25 0 5 0 8-1 11-5 0-2 0-3 0-5-2-4-6-5-10-5-164 0-328 0-492 0-4 0-7 1-10 5 0 2 0 4 0 5z m169 196c1 2 1 4 2 6 3 6 5 12 8 18 1 4 4 6 8 5 4 0 6-3 6-8 0-1 0-2 0-3 0-34 0-67 0-100 0-2 0-4 0-6 42 0 84 0 126 0 0 5 0 9 0 13 0 31 0 62 0 92 0 2 0 3 0 4 0 5 2 8 6 8 4 1 7-1 8-5 4-9 8-18 12-28 12 6 24 11 36 16-5 12-8 24-12 36-6 17-18 28-35 33-16 5-31 10-47 15-16 5-33 8-50 3-22-6-44-13-65-20-14-5-23-15-28-29-3-9-6-19-9-29-1-2-1-3 2-5 10-5 21-10 32-16z m127-191c0 0 1 0 1 0 51 0 103 0 154 0 1 0 3 0 4 1 6 4 11 10 13 18 3 15-5 27-21 32-38 11-77 23-115 35-4 1-7 2-10 2-44 0-88 0-131 0-2 0-5 0-7-1-41-12-83-25-125-38-2 0-4-2-6-4-7-9-8-20-3-31 5-11 14-14 25-14 66 0 133 0 200 0 1 0 3 0 6 0-3 4-5 8-8 10-5 3-10 6-16 7-21 3-43 5-64 7-19 2-37 4-55 6-5 0-8 4-7 8 1 5 4 7 9 7 23-3 45-5 68-7 25-3 50-8 75-5 6 1 11 1 16 1 6 0 9-2 10-7 0-4-4-7-9-8-4 0-8 0-12-1 3-6 5-11 8-18z m1 363c0 6 0 13 0 19-1 19-16 34-35 36-19 1-38-12-40-31-2-15-1-30-1-45 1-20 19-35 39-35 20 1 36 16 37 36 0 7 0 13 0 20z m-167-277c-1 0 0 0 1 1 14 4 28 9 43 13 3 1 4 2 4 5 0 21 0 42 0 63 0 1 0 2 0 5-3-6-4-10-6-14-2-5-6-7-10-5-4 2-6 6-4 11 2 4 3 8 5 12-11 6-23 12-34 17-1-2-1-3-2-5-5-13-9-26-14-40-3-10-9-18-17-25-20-18-41-35-62-53-1-1-2-2-3-3 9-7 20-7 30-2 21 12 43 24 64 36 7 4 13 10 15 18 1 3 3 6 4 9 2 4 5 5 9 3 4-1 6-5 5-9-3-7-6-14-11-20-5-7-12-12-17-17z m220 88c1-2 2-4 2-5 6-15 12-29 18-44 4-12 11-20 22-26 20-10 39-21 58-32 10-6 21-6 31 1-1 1-2 2-3 3-20 17-40 35-61 52-9 8-16 17-19 29-4 12-9 24-13 37-12-5-23-10-35-15z m35-88c-1 1-1 1-2 1-1 1-2 1-3 2-10 6-18 14-22 26-6 15-13 30-19 46-1 3-3 7-5 12 0-2 0-2 0-3 0-22 0-44 0-66 0-1 2-3 3-4 9-3 17-5 26-8 7-2 14-4 22-6z m-19-48c7 0 15 1 23 1 5 0 9-2 9-7 0-5-3-8-9-8-15-1-31-2-46-2-7-1-10 2-10 7-1 4 2 7 8 7 9 1 17 1 25 2z"/>
<glyph glyph-name="icone-promove-flexibilidade" unicode="&#70;" d="M512 8c-2-6-7-8-13-8-162 0-324 0-486 0-1 0-2 0-3 0-6 1-10 5-10 10 0 5 4 9 10 10 2 0 4 0 6 0 2 0 4 0 7 0-6 15 2 26 8 37 38 77 75 154 114 230 20 40 55 58 99 59 14 0 27 0 40 0 2 0 3 0 6 0-2 13-4 25-6 36-7 39-14 77-21 115-1 9 1 12 11 15 4 0 7 0 11 0 2-1 5-1 7-2 21-6 34-20 38-41 8-40 15-80 23-120 2-8 3-17 5-26 14 18 32 24 53 23 10 0 20 0 30-3 3-1 6-1 9-1 8 3 15 5 23 4 16-3 29-16 30-32 1-17-9-32-26-38-3-1-4-2-5-5-5-11-11-19-21-25-19-13-40-11-61-7-7 1-14 6-22 9 13-76 27-152 40-228 2 0 4 0 6 0 28 0 56 0 85 0 6 0 11-2 13-8 0-1 0-3 0-4z m-146 12c-5 5-10 8-14 13-41 48-82 96-123 144-8 9-13 20-12 31 1 9-3 14-8 19-16 17-31 34-46 50-6-7-10-23-11-34-2-30 8-54 29-74 12-12 25-24 37-37 5-4 5-11 1-15-4-4-10-3-15 1-4 3-7 7-11 10-9 10-18 19-27 29-2-2-2-3-3-4-22-39-45-77-67-116-1 0-1-1-1-2-3-5 0-9 2-13 1-2 5-2 7-2 64 0 129 0 193 0 2 0 3 0 5 0-9 9-17 17-25 26-6 6-12 11-17 17-4 5-4 11 0 14 4 4 9 4 13 0 2-1 3-2 4-3 16-16 32-32 48-48 3-3 7-5 10-6 10 0 20 0 31 0z m-81 471c0-2 0-4 1-6 8-48 17-96 25-144 2-10-2-15-13-15-18 0-35 0-53 0-13 0-26-2-38-7-13-6-24-14-33-24 19-21 37-41 56-61 8 6 16 6 25 6 22 0 44 0 65 0 17 0 28 11 28 27 0 5 1 11 0 16 0 4-1 8-2 11-1 6-5 11-6 17-7 37-14 73-21 110-3 17-6 33-10 49-3 12-13 20-24 21z m-209-471c-5 13 0 23 6 34 22 38 45 76 67 114 2 3 2 5 0 9-5 10-9 20-13 30-2 3-2 8-3 12-1-2-2-3-3-4-22-46-45-92-67-137-7-14-14-28-21-42-3-8 1-16 8-16 9 0 17 0 26 0z m257 65c0 0 0 1 1 1-2 11-4 21-6 32-6 33-12 66-18 98 0 2-3 4-4 4-19 0-39 0-58 0-8 0-12-5-11-13 0-7 3-12 8-17 25-30 50-60 75-90 5-5 9-10 13-15z m79 172c4 0 7 0 11 0 18 1 33 16 33 34 0 19-15 34-33 35-8 0-15 0-23 0-14-1-27-12-31-27-3-14 4-30 17-37 8-5 17-5 26-5z m-27-226c-11 67-23 133-34 198-7-3-14-6-21-9 0-1 0-2 0-4 10-51 19-103 29-155 1-6 3-11 8-15 5-5 11-9 18-15z m79 295c3-5 6-9 8-14 1-4 2-9 4-14 6 4 8 11 6 18-2 7-9 11-18 10z m-223-221c6 0 10-5 10-10 0-5-4-10-9-10-6 0-10 4-10 10 0 5 4 10 9 10z"/>
<glyph glyph-name="icone-reduz-dor-inchaco" unicode="&#71;" d="M256 512c-141 0-256-115-256-256 0-141 115-256 256-256 141 0 256 115 256 256 0 141-115 256-256 256z m0-33c123 0 223-100 223-223 0-123-100-223-223-223-123 0-223 100-223 223 0 123 100 223 223 223z m-156-162c-9 0-16-9-16-16l0-90c0-8 7-16 16-16l312 0c9 0 16 8 16 16l0 90c0 8-7 16-16 16z m17-33l278 0 0-56-278 0z"/>
<glyph glyph-name="icone-rpg" unicode="&#72;" d="M36 88c-1-26-3-52-16-77-3-4-1-8 3-10 4-1 9-1 10 3 15 28 17 56 19 84 7 111 36 55 35 180 0 33-1 67 12 107 7 20 23 35 43 40 35 9 58 24 69 46 12 24 3 46 2 46-2 4-6 6-10 4-4-1-6-6-4-10 0 0 6-16-3-34-9-16-28-29-59-37-25-7-45-25-53-50-14-44-14-81-14-113 2-122-27-61-34-179z m86-87c4-1 9-1 10 3 56 108 20 228 19 233-1 3-5 6-8 6-4 0-7-4-8-7-23-174-64-221-64-222-4-3-3-8 1-11 3-3 7-3 11 1 1 1 37 42 61 187 6-44 7-115-25-179-2-4 0-9 3-11z m356 87c-8 119-36 56-35 179 0 33 0 69-14 112-8 25-28 44-54 51-30 8-50 20-59 37-9 17-2 33-2 34 1 4 0 9-4 10-4 2-9 0-11-4 0 0-9-23 3-46 10-21 33-37 69-46 20-4 36-20 42-40 13-40 13-74 13-107-1-126 28-68 35-180 2-28 3-56 18-84 3-4 8-4 11-3 4 2 5 6 3 10-12 25-14 51-15 77z m-46-85c3-3 8-3 11 0 4 3 4 8 1 11-1 1-42 48-65 222-1 4-4 7-8 7-4 0-7-2-8-6-1-5-37-125 19-233 1-4 6-5 10-3 4 2 6 6 3 10-33 64-31 135-25 179 24-145 60-186 62-187z m-167 481c-2 4-6 7-10 5-4-2-6-6-4-10 0 0 1-4 3-11 1-4 5-6 9-5 4 1 7 5 6 9-2 7-4 12-4 12z m-16-399c4 1 7 5 6 9 0 8-1 15-2 23 0 4-4 7-8 7-4 0-7-4-7-8 1-8 1-16 2-24 0-4 4-7 9-7z m2-41c1-4 5-6 9-5 4 2 7 6 5 10-2 7-4 15-6 23 0 3-4 6-9 5-4-1-7-5-6-10 2-8 4-15 7-23z m-3 170c-2-8-4-16-5-24-1-4 1-8 6-9 4-1 8 2 9 6 1 8 3 16 5 23 2 4 0 9-5 10-5 0-9-2-10-6z m18 241c-4-1-7-5-6-10 2-7 3-15 5-23 1-4 5-8 9-7 4 1 7 5 6 9-1 9-3 17-5 24-1 5-5 7-9 7z m-27-289c-1-8-2-16-2-25 0-4 3-8 7-8 4 0 8 3 8 7 0 8 1 16 2 24 1 4-3 8-8 8-3 1-7-2-7-6z m33 99c-4 1-9-2-9-6-3-7-5-15-8-22-1-4 1-9 5-10 4-1 9 1 10 5 2 8 5 16 7 24 2 3 0 7-5 9z m11 14c2 8 4 16 4 24 1 4-2 8-6 9-4 1-8-2-9-6-1-7-2-15-4-23-1-4 2-8 7-9 4-2 8 1 8 5z m-8 128c-4 0-7-4-6-8 2-8 2-16 3-24 1-4 4-7 9-7 4 1 7 4 7 9-1 8-1 16-3 24-2 4-6 7-10 6z m14-54c0 4-4 7-8 7-4 0-7-4-7-8 1-8 1-16 0-23 0-4 3-8 7-8 4 0 7 3 8 7 1 7 1 16 0 25z m-26-344c1-4 6-5 10-4 4 2 6 7 4 11-2 3-3 7-4 10-2 4-6 6-10 5-4-2-7-7-5-11 2-3 3-7 5-11z"/>
<glyph glyph-name="icone-seta-accordeon" unicode="&#73;" d="M256 110c-9 0-18 4-25 11l-220 220c-15 14-15 36 0 50 14 14 36 14 50 0l195-194 195 194c14 14 37 14 50 0 15-14 15-36 0-50l-220-220c-7-7-16-11-25-11z"/>
<glyph glyph-name="icone-telefone" unicode="&#74;" d="M492 407c-19 27-54 52-96 69-43 17-92 27-140 27-47 0-96-9-139-26-43-18-77-42-97-69-19-26-25-54-16-81 6-17 22-29 41-29l64 0c0 0 0 0 0 0 13 0 24 6 33 15 8 10 11 23 9 35 0 0 0 1 0 1l-4 13c19 9 61 26 109 26 49 0 91-18 109-26l-3-13c0-1 0-1 0-2-3-12 1-24 9-34 8-10 20-16 33-16l64 0c0 0 0 0 0 0 18 0 35 12 40 29 9 27 3 55-16 81z m-13-71c-2-5-6-8-12-8l-64 0c-3 0-7 2-9 4-1 2-3 5-3 9l7 25c2 6-1 13-7 17-3 1-62 35-135 35 0 0-1 0-1 0-73 0-131-33-134-35-5-3-8-10-7-17l7-24c0-4-2-7-3-9-2-3-6-4-9-4l-64 0c-6 0-10 3-12 8-6 17-2 35 11 53 35 48 124 82 212 82 0 0 0 0 0 0 88 0 177-35 212-83 13-18 17-36 11-53z m-78-104l-48 50c-3 3-7 5-11 5l-31 0 0 21c0 8-7 15-15 15-9 0-16-7-16-15l0-21-48 0 0 21c0 8-7 15-16 15-8 0-15-7-15-15l0-21-31 0c-4 0-8-2-11-5l-48-50c-37-39-58-91-58-145l0-63c0-8 7-15 16-15l374 0c9 0 16 7 16 15l0 63c0 54-21 106-58 145z m-317-192l0 47c0 47 18 91 50 124l43 45 158 0 44-45c32-33 49-77 49-124l0-47z m172 185c-44 0-80-36-80-80 0-44 36-80 80-80 44 0 80 36 80 80 0 44-36 80-80 80z m0-130c-27 0-49 23-49 50 0 27 22 49 49 49 27 0 49-22 49-49 0-27-22-50-49-50z"/>
<glyph glyph-name="icone-terapia-ocupacional" unicode="&#75;" d="M480 235l-64 0 0 8c1 24-17 43-40 45-24 1-44-17-45-41 0 0 0-1 0-2l0-11-139 0c-6 0-11-4-11-10l0-21c0-12-9-22-21-22-1 0-1 0-1 0-12 1-21 11-21 23l0 20c0 6-4 11-10 11l-75 0c-6 0-11-5-11-11l0-171c0-30 24-54 54-54l342 0c29 0 53 24 53 54l0 171c0 6-5 11-11 11z m-224-150l0-64-160 0c-18 0-32 14-32 32l0 160 53 0 0-9c0-23 17-43 41-44 11-1 23 4 31 12 9 8 14 19 14 31l0 10 53 0 0-64c0-6 5-11 11-11l21 0c12 0 21-9 22-21 0 0 0-1 0-1-2-12-12-21-24-20l-19 0c-6 0-11-5-11-11z m214-32c0-18-15-32-32-32l-161 0 0 53 9 0c24 0 43 18 45 41 1 23-17 44-41 45 0 0-1 0-2 0l-11 0 0 53 64 0c6 0 11 5 11 11l0 21c0 12 10 22 22 22 0 0 0 0 1 0 12-1 20-11 20-23l0-20c0-6 5-11 11-11l64 0 0-160z m-396 299l0-64c0-6 5-11 11-11l75 0c6 0 11 5 11 11l0 21c0 6 2 12 6 16 4 4 10 6 16 6 12-1 21-11 20-23l0-20c0-6 5-11 11-11l75 0c6 0 10 5 10 11l0 171c0 30-23 53-53 53l-171 0c-6 0-11-4-11-10l0-64-9 0c-23 0-42-18-44-41-1-23 17-44 40-45 1 0 2 0 3 0z m-32 44c1 12 12 21 23 20l20 0c6 0 11 5 11 11l0 64 160 0c18 0 32-14 32-32l0-160-53 0 0 9c0 23-18 43-41 44-23 1-44-17-45-40 0-1 0-2 0-3l0-10-53 0 0 64c0 6-5 11-11 11l-21 0c-12 0-22 9-22 21 0 0 0 1 0 1z"/>
<glyph glyph-name="icone-youtube" unicode="&#76;" d="M224 450c21 0 43 0 64 0 2 0 4-1 5-1 21 0 42-1 62-1 25-1 50-2 74-4 41-4 66-26 75-65 3-15 4-31 6-46 1-10 1-21 2-31 0-31 0-62 0-93-1-4-1-8-1-12-2-19-3-38-6-56-2-15-6-29-15-41-15-21-37-31-62-32-48-2-95-3-143-5-3 0-7-1-10-1-11 0-22 0-33 0-8 1-16 1-23 1-46 2-93 3-138 7-41 3-65 25-74 65-2 15-3 29-5 44-1 10-1 20-2 30 0 31 0 62 0 93 0 4 1 8 1 12 2 22 1 44 7 66 6 20 15 37 32 50 16 10 33 14 51 15 43 1 85 3 128 4 1 0 3 1 5 1z m43-30c-47-1-83-1-119-3-21 0-43-1-64-3-22-2-37-12-44-33-5-15-7-31-8-46-3-53-3-106 1-158 0-14 3-28 5-41 2-9 6-17 12-23 9-9 21-13 32-14 18-1 36-3 53-4 81-3 161-4 242 0 19 1 38 2 57 4 18 2 30 12 37 29 6 16 8 33 9 50 2 46 3 91 1 137-1 20-1 41-7 61-4 16-13 28-29 34-8 2-16 4-24 4-55 3-110 5-154 6z m-76-159c0 20 0 39 0 59 0 19 16 29 33 19 36-19 73-39 109-59 13-7 17-22 7-33-2-2-5-4-8-6-36-19-72-39-108-58-17-9-33 0-33 19 0 20 0 40 0 59z m30-45c29 15 56 30 84 45-28 15-56 31-84 46 0-31 0-61 0-91z"/>
</font>
</defs>
</svg>
